Lost

Lost S01E02 AVM

  • Download 5x Faster
  • Download torrent
  • Direct Download
  • Rate this torrent +  |  -
Lost S01E02 AVM

Anonymous and Free Direct Download


Torrent info

Name:Lost S01E02 AVM

Total Size: 163.99 MB

Magnet: Magnet Link

Seeds: 0

Leechers: 0

Stream: Watch Online @ Movie4u

Last Updated: 2017-01-21 17:00:29 (Update Now)

Torrent added: 2009-08-23 14:19:28



VPN For Torrents

Torrent Files List


Torrent downloaded from Demonoid.com.txt (Size: 163.99 MB) (Files: 2)

 Torrent downloaded from Demonoid.com.txt

0.04 KB

 Lost-S01E02-AVM.mp4

163.99 MB
 

tracker

leech seeds
 

Torrent description

AVIDMobile - http://www.avidmobile.com.ar

Video
ID : 1
Format : MPEG-4 Visual
Format profile : [email protected]
Format settings, BVOP : No
Format settings, QPel : No
Format settings, GMC : No warppoints
Format settings, Matrix : Default (H.263)
Codec ID : 20
Duration : 40mn 20s
Bit rate mode : Variable
Bit rate : 502 Kbps
Maximum bit rate : 1 727 Kbps
Width : 320 pixels
Height : 240 pixels
Display aspect ratio : 4/3
Frame rate mode : Variable
Frame rate : 23.976 fps
Minimum frame rate : 23.974 fps
Maximum frame rate : 23.981 fps
Resolution : 24 bits
Colorimetry : 4:2:0
Scan type : Progressive
Bits/(Pixel*Frame) : 0.273
Stream size : 145 MiB (88%)

Audio
ID : 2
Format : AAC
Format/Info : Advanced Audio Codec
Format version : Version 4
Format profile : LC
Format settings, SBR : No
Codec ID : 40
Duration : 40mn 20s
Bit rate mode : Variable
Bit rate : 64.1 Kbps
Maximum bit rate : 140 Kbps
Channel(s) : 2 channels
Channel positions : L R
Sampling rate : 22.05 KHz
Resolution : 16 bits
Stream size : 18.5 MiB (11%)

related torrents

Torrent name

health leech seeds Size

Lost S01e13 Avm

0 2 135.00 MB 0

Lost S01e12 Avm

0 3 135.00 MB 0

Lost S01e16 Avm

0 3 138.00 MB 0

Lost S01e19 Avm

0 2 135.00 MB 0

Lost S01e01 Avm

0 3 141.00 MB 0
 


comments (0)

Main Menu