Electronic

Kay Rush Present: Unlimited 2 [Flac+Cue]TNT electronic

  • Download 5x Faster
  • Download torrent
  • Direct Download
  • Rate this torrent +  |  -
Kay Rush Present: Unlimited 2 [Flac+Cue]TNT electronic

Anonymous and Free Direct Download 300GB+


Torrent info

Name:Kay Rush Present: Unlimited 2 [Flac+Cue]TNT electronic

Total Size: 1.02 GB

Magnet: Magnet Link

Seeds: 1

Leechers: 1

Stream: Watch Online @ Movie4u

Last Updated: 2010-12-27 16:37:35 (Update Now)

Torrent added: 2009-08-23 14:10:55



VPN For Torrents

Torrent Files List


Image0011.JPG (Size: 1.02 GB) (Files: 9)

 Image0011.JPG

638.05 KB

 Image0009.JPG

366.31 KB

 Image0010.JPG

449.95 KB

 Disc K

  Various Artists - Unlimited-II.flac

527.50 MB

  Various Artists - Unlimited-II.cue

2.19 KB

  k.log

3.03 KB

 Disc R

  Various Artists - disc r.flac

515.51 MB

  disc r.log

3.03 KB

  Various Artists - disc r.cue

1.99 KB
 

Announce URL: http://tracker.tntvillage.scambioetico.org:2710/announce

Torrent description

Autore:Kay Rush
Titolo:Unlimited II
Anno:25 ottobre 2006
Genere: Electronic Dance (Deep & Soulfull House)
Etichetta:fonte cd /originale /cdda
Cover : Incluse
etichetta :time

:::->Tracklist<-:::

1. Sweet Coffee - Love Having You Around
2. Shaun Escoffery - I Heard It Through The Grapevine (Terrence Parker’s Detroit Soul mix)
3. Reel People feat. Angela Johnson - In The Sun (Yoruba Soul remix)
4. Secret Stealth - Dream Of You
5. Big Bang feat. Nathan Haines - To The Full Every Minute (Nicola Conte remix)
6. Status IV - You Ain’t Really Down (Jazzanova’s Hey Baby remix)
7. Freddie Cruger feat. Desmond Foster - Baddest Mutha
8. Roy Ayers - I’m Your Mind Part 2 (Basement Jaxx Dreamz mix)
9. Kloud 9 - So Many Reasons (Copyright Classic mix)
10. Fish Go Deep feat. Tracey K - The Cure & The Cause (Dennis Ferrer remix)
11. Mish Mash feat. Lois - Speechless (Sandy Rivera remix)
12. Harley & Muscle - Around Us
13. Hideo Kobayashi - Shiroi Mayu (Harley & Muscle Deep mix)
14. Magic - Inside Out(Soulmotion mix)
15. Verna Francis - Look (Extended Vocal Mix)

Disco 2

1. DJ Pope feat. Lynnette Smith - Addicted (Kerri - 623 Chandler remix)
2. Rephrase - Good Feelin’
3. Masterbuilders - Blend (Jazz’n’Groove Retweaked mix)
4. Ron Hall & The Mutha Funkaz feat. Marc Evans - The Way You Love Me (Dim’s T.S.O.P. Version)
5. Blaze pres. Udaufl feat. Ultra Nate - Wonderful Place
6. Bobby D\'Ambrosio feat. Lasala - Runaway Love (Osio remix)
7. Open Door - Sun That Moves The Rain (Adam Scott remix)
8. Demarkus Lewis feat. Lady Sah - Untitled Love Affair (Mr. V’s Sole Channel remix)
9. Chambao - Pokito A Poko (David Ferrero House Park remix)
10. Jamie Lewis & Michael Watfor - It\'s Over
11. IZ & DIZ - Magnificent
12. Dennis Ferrer feat. Tyrone Ellis - Underground Is My Home
13. Andy Caldwell feat. Amma - Don’t You Love Me
14. Hanna Hais - Jazz Samba (Ian Carey remix)
15. Boo Williams & Demarkus Lewis - Outta That Gear



Exact Audio Copy V0.99 prebeta 3 from 28. July 2007

EAC extraction logfile from 14. May 2008, 20:21

Various Artists / k

Used drive : _NEC DVD_RW ND-3550A Adapter: 5 ID: 0

Read mode : Secure
Utilize accurate stream : Yes
Defeat audio cache : Yes
Make use of C2 pointers : No

Read offset correction : 48
Overread into Lead-In and Lead-Out : No
Fill up missing offset samples with silence : Yes
Delete leading and trailing silent blocks : No
Null samples used in CRC calculations : No
Used interface : Installed external ASPI interface

Used output format : User Defined Encoder
Selected bitrate : 768 kBit/s
Quality : High
Add ID3 tag : No
Command line compressor : C:\\Programmi\\Exact Audio Copy\\FLAC\\FLAC.EXE
Additional command line options : -6 -V -T \"ARTIST=%a\" -T \"TITLE=%t\" -T \"ALBUM=%g\" -T \"DATE=%y\" -T \"TRACKNUMBER=%n\" -T \"GENRE=%m\" -T \"COMMENT=%e\" %s -o %d


TOC of the extracted CD

Track | Start | Length | Start sector | End sector
---------------------------------------------------------
1 | 0:00.00 | 5:53.34 | 0 | 26508
2 | 5:53.34 | 3:51.71 | 26509 | 43904
3 | 9:45.30 | 5:47.42 | 43905 | 69971
4 | 15:32.72 | 5:41.18 | 69972 | 95564
5 | 21:14.15 | 6:18.42 | 95565 | 123956
6 | 27:32.57 | 4:48.33 | 123957 | 145589
7 | 32:21.15 | 4:32.54 | 145590 | 166043
8 | 36:53.69 | 5:54.17 | 166044 | 192610
9 | 42:48.11 | 5:30.37 | 192611 | 217397
10 | 48:18.48 | 4:34.09 | 217398 | 237956
11 | 52:52.57 | 5:19.22 | 237957 | 261903
12 | 58:12.04 | 5:20.52 | 261904 | 285955
13 | 63:32.56 | 6:00.34 | 285956 | 312989
14 | 69:33.15 | 5:01.65 | 312990 | 335629
15 | 74:35.05 | 4:46.54 | 335630 | 357133


Range status and errors

Selected range

Filename D:\\Documents and Settings\\salvo.SN116508160310\\Documenti\\Various Artists - Unlimited-II.wav

Peak level 100.0 %
Range quality 99.9 %
Test CRC 91E5E16E
Copy CRC 91E5E16E
Copy OK

No errors occurred


AccurateRip summary

Track 1 not present in database
Track 2 not present in database
Track 3 not present in database
Track 4 not present in database
Track 5 not present in database
Track 6 not present in database
Track 7 not present in database
Track 8 not present in database
Track 9 not present in database
Track 10 not present in database
Track 11 not present in database
Track 12 not present in database
Track 13 not present in database
Track 14 not present in database
Track 15 not present in database

None of the tracks are present in the AccurateRip database

End of status report

-----------------------------------------------------------------------
Exact Audio Copy V0.99 prebeta 3 from 28. July 2007

EAC extraction logfile from 14. May 2008, 17:42

Various Artists / disc r

Used drive : _NEC DVD_RW ND-3550A Adapter: 5 ID: 0

Read mode : Secure
Utilize accurate stream : Yes
Defeat audio cache : Yes
Make use of C2 pointers : No

Read offset correction : 48
Overread into Lead-In and Lead-Out : No
Fill up missing offset samples with silence : Yes
Delete leading and trailing silent blocks : No
Null samples used in CRC calculations : No
Used interface : Installed external ASPI interface

Used output format : User Defined Encoder
Selected bitrate : 768 kBit/s
Quality : High
Add ID3 tag : No
Command line compressor : C:\\Programmi\\Exact Audio Copy\\FLAC\\FLAC.EXE
Additional command line options : -6 -V -T \"ARTIST=%a\" -T \"TITLE=%t\" -T \"ALBUM=%g\" -T \"DATE=%y\" -T \"TRACKNUMBER=%n\" -T \"GENRE=%m\" -T \"COMMENT=%e\" %s -o %d


TOC of the extracted CD

Track | Start | Length | Start sector | End sector
---------------------------------------------------------
1 | 0:00.00 | 5:50.25 | 0 | 26274
2 | 5:50.25 | 4:45.03 | 26275 | 47652
3 | 10:35.28 | 5:13.73 | 47653 | 71200
4 | 15:49.26 | 5:53.51 | 71201 | 97726
5 | 21:43.02 | 5:46.61 | 97727 | 123737
6 | 27:29.63 | 5:33.25 | 123738 | 148737
7 | 33:03.13 | 5:31.56 | 148738 | 173618
8 | 38:34.69 | 3:58.58 | 173619 | 191526
9 | 42:33.52 | 4:59.74 | 191527 | 214025
10 | 47:33.51 | 5:03.34 | 214026 | 236784
11 | 52:37.10 | 5:48.71 | 236785 | 262955
12 | 58:26.06 | 5:47.73 | 262956 | 289053
13 | 64:14.04 | 5:16.31 | 289054 | 312784
14 | 69:30.35 | 4:54.44 | 312785 | 334878
15 | 74:25.04 | 4:58.58 | 334879 | 357286


Range status and errors

Selected range

Filename D:\\Documents and Settings\\salvo.SN116508160310\\Documenti\\Various Artists - disc r.wav

Peak level 100.0 %
Range quality 100.0 %
Test CRC 40778924
Copy CRC 40778924
Copy OK

No errors occurred


AccurateRip summary

Track 1 not present in database
Track 2 not present in database
Track 3 not present in database
Track 4 not present in database
Track 5 not present in database
Track 6 not present in database
Track 7 not present in database
Track 8 not present in database
Track 9 not present in database
Track 10 not present in database
Track 11 not present in database
Track 12 not present in database
Track 13 not present in database
Track 14 not present in database
Track 15 not present in database

None of the tracks are present in the AccurateRip database

End of status report





related torrents

Torrent name

health leech seeds Size
 


comments (0)

Main Menu