Electronic

Hotel Costes Volume Quatre [Flac+Cue]tnt electronic [by ramasutra]

  • Download 5x Faster
  • Download torrent
  • Direct Download
  • Rate this torrent +  |  -


Torrent info

Name:Hotel Costes Volume Quatre [Flac+Cue]tnt electronic [by ramasutra]

Total Size: 497.27 MB

Magnet: Magnet Link

Seeds: 4

Leechers: 2

Stream: Watch Online @ Movie4u

Last Updated: 2010-11-30 22:27:56 (Update Now)

Torrent added: 2009-08-23 13:56:09



VPN For Torrents

Torrent Files List


Stephane Pompougnac - Hotel Costes Quatre.flac (Size: 497.27 MB) (Files: 5)

 Stephane Pompougnac - Hotel Costes Quatre.flac

497.16 MB

 Stephane Pompougnac - Hotel Costes Quatre.cue

1.73 KB

 Hotel Costes Vol[1].04 - Front.jpg

54.71 KB

 Hotel Costes Vol[1].04 - Back.jpg

59.66 KB

 Hotel Costes Quatre.log

3.89 KB
 

Announce URL: http://tracker.tntvillage.scambioetico.org:2710/announce

Torrent description

Autore:Stephane Pompougnac
Titolo:Hotel Coste Vol. 4
Anno:2001
Genere: Electronic / Chillout
Etichetta:fonte cd /originale /cdda
Cover : Incluse
etichetta :Wagram

:::->Tracklist<-:::

1. Variety Lab - London In The Rain
2. The Method - I\'ve Got A Cat
3. Thunderball - Solar
4. Dublex Inc. - Tango Forte
5. Scott Grooves - Organ Night Pt. 2
6. Slowsupreme - Granada
7. Stiphane Pompougnac - Closer To Julie
8. John Cutler (feat. E-Man) - It\'s Yours (Jon\'s B-Side Breakdown Mix)
9. Imada - Playground Do Brasil
10. Major Boys (feat. Amelia) - Sous Le Soleil (Cuba Acoustic Mix)
11. Doctor Rockit - Cafi De Flore (Charles Webster\'s Latin Lovers Mix)
12. Gotan Project - Epoca
13. Shantel - Whatever
14. Orbient - Boarding (Doubleseat Mix)


dati

Exact Audio Copy V0.99 prebeta 3 from 28. July 2007

EAC extraction logfile from 23. January 2008, 7:55

Stephane Pompougnac / Hotel Costes Quatre

Used drive : _NEC DVD_RW ND-3550A Adapter: 5 ID: 0

Read mode : Secure
Utilize accurate stream : Yes
Defeat audio cache : Yes
Make use of C2 pointers : No

Read offset correction : 48
Overread into Lead-In and Lead-Out : No
Fill up missing offset samples with silence : Yes
Delete leading and trailing silent blocks : No
Null samples used in CRC calculations : No
Used interface : Installed external ASPI interface

Used output format : User Defined Encoder
Selected bitrate : 768 kBit/s
Quality : High
Add ID3 tag : No
Command line compressor : C:\\Programmi\\Exact Audio Copy\\FLAC\\FLAC.EXE
Additional command line options : -6 -V -T \"ARTIST=%a\" -T \"TITLE=%t\" -T \"ALBUM=%g\" -T \"DATE=%y\" -T \"TRACKNUMBER=%n\" -T \"GENRE=%m\" -T \"COMMENT=%e\" %s -o %d


TOC of the extracted CD

Track | Start | Length | Start sector | End sector
---------------------------------------------------------
1 | 0:00.00 | 3:34.72 | 0 | 16121
2 | 3:34.72 | 3:15.47 | 16122 | 30793
3 | 6:50.44 | 4:24.03 | 30794 | 50596
4 | 11:14.47 | 4:52.29 | 50597 | 72525
5 | 16:07.01 | 5:50.69 | 72526 | 98844
6 | 21:57.70 | 5:55.46 | 98845 | 125515
7 | 27:53.41 | 7:32.48 | 125516 | 159463
8 | 35:26.14 | 4:24.02 | 159464 | 179265
9 | 39:50.16 | 6:01.50 | 179266 | 206390
10 | 45:51.66 | 7:02.00 | 206391 | 238040
11 | 52:53.66 | 5:35.57 | 238041 | 263222
12 | 58:29.48 | 4:23.60 | 263223 | 283007
13 | 62:53.33 | 4:38.09 | 283008 | 303866
14 | 67:31.42 | 5:57.51 | 303867 | 330692


Range status and errors

Selected range

Filename D:\\Documents and Settings\\salvo.SN116508160310\\Documenti\\Stephane Pompougnac - Hotel Costes Quatre.wav


Peak level 100.0 %
Range quality 99.8 %
Test CRC F1B697DB
Copy CRC F1B697DB
Copy finished

There were errors


AccurateRip summary

Track 1 cannot be verified as accurate (confidence 2) [6B2AC323], AccurateRip returned [880BE0B7]
Track 2 cannot be verified as accurate (confidence 2) [D1E5D024], AccurateRip returned [B997A8E5]
Track 3 cannot be verified as accurate (confidence 2) [955B3FC0], AccurateRip returned [1B83B16E]
Track 4 cannot be verified as accurate (confidence 2) [BAC15CD8], AccurateRip returned [C4793DAC]
Track 5 cannot be verified as accurate (confidence 2) [F02BA44F], AccurateRip returned [50F26E3A]
Track 6 cannot be verified as accurate (confidence 2) [6B7D2339], AccurateRip returned [88BD02F4]
Track 7 cannot be verified as accurate (confidence 2) [EA2CA114], AccurateRip returned [25CA4C6D]
Track 8 cannot be verified as accurate (confidence 2) [D62678CE], AccurateRip returned [546C0041]
Track 9 cannot be verified as accurate (confidence 2) [03C3B722], AccurateRip returned [A4FFA754]
Track 10 cannot be verified as accurate (confidence 2) [54F5DF2D], AccurateRip returned [13E4B6E0]
Track 11 cannot be verified as accurate (confidence 2) [CB4F2941], AccurateRip returned [C5162AD2]
Track 12 cannot be verified as accurate (confidence 2) [3C9510FD], AccurateRip returned [5A12026B]
Track 13 cannot be verified as accurate (confidence 2) [B9180E02], AccurateRip returned [9D1153EC]
Track 14 cannot be verified as accurate (confidence 2) [7D4550CF], AccurateRip returned [24CCE0A4]

No tracks could be verified as accurate

End of status report





related torrents

Torrent name

health leech seeds Size
 


comments (0)

Main Menu