Bleach

Bleach 181 (Divx) Eng Sub 1337x By {Noir}

  • Download 5x Faster
  • Download torrent
  • Direct Download
  • Rate this torrent +  |  -
Bleach 181 (Divx) Eng Sub 1337x By {Noir}

Anonymous and Free Direct Download


Torrent info

Name:Bleach 181 (Divx) Eng Sub 1337x By {Noir}

Total Size: 179.24 MB

Magnet: Magnet Link

Seeds: 5

Leechers: 24

Stream: Watch Online @ Movie4u

Last Updated: 2010-11-29 07:09:10 (Update Now)

Torrent added: 2008-07-24 12:33:04



VPN For Torrents

Torrent Files List


Noir.nfo (Size: 179.24 MB) (Files: 3)

 Noir.nfo

4.61 KB

 1337x.Org.txt

0.03 KB

 Bleach 181 (Divx) [1337x] By {Noir}.avi

179.24 MB
 

Announce URL: http://genesis.1337x.org:1337/announce

Torrent description

_____________________________________________________________________________
??????
??????? ????
???????? ??????
????????? ???????????
???????? ???????????? ?????????????
????????? ???????????????????????????
?????????? ???????????????????????????
??????????? ?????????????????????????????
?????????????????????????????????????????
?????????????????????????????????????????
?????????????????????????????????????????
?????????????????????????????????????????
?????????????????????????????????????????
???????? ?????????????????????????????????
????????? ????????????????????????????
????????? ????????????????? ????????
????????? ???????????????? ????????
????????? ?????????????? ????????
????????? ?????
_____________________________________________________________________________



*******************************************************************************
Bleach (181)
*******************************************************************************

-------------------------------------------------------------------------------
General Information
-------------------------------------------------------------------------------
Type : Anime
Format : AVI
Format/Info : Audio Video Interleave
File size : 179 MiB
Duration : 24mn 1s
Genre : Action | Adventure | Fantasy
IMDB Link : http://www.imdb.com/title/tt0434665/
Rating : 9.0/10
Subtitles : English


Video
Format : MPEG-4 Visual
Format settings, BVOP : Yes
Format settings, QPel : No
Format settings, GMC : No warppoints
Format settings, Matrix : Default
Muxing mode : Packet Bitstream
Codec ID : DX50
Codec ID/Hint : DivX 5
Duration : 24mn 1s
Bit rate : 905 Kbps
Width : 624 pixels
Height : 336 pixels
Display aspect ratio : 1.857
Frame rate : 23.976 fps
Resolution : 8 bits
Colorimetry : 4:2:0
Scan type : Progressive
Bits/(Pixel*Frame) : 0.180
Stream size : 156 MiB (87%)

Audio
Format : MPEG Audio
Format version : Version 1
Format profile : Layer 3
Codec ID : 55
Codec ID/Hint : MP3
Duration : 24mn 1s
Bit rate mode : Constant
Bit rate : 128 Kbps
Minimum bit rate : 128 Kbps
Channel(s) : 2 channels
Sampling rate : 48.0 KHz
Resolution : 16 bits
Stream size : 22.0 MiB (12%)
Alignment : Aligned on interleaves
Interleave, duration : 42 ms (1.00 video frame)
Interleave, preload duration : 504 ms
Writing library : LAME3.97
Encoding settings : CBR

-------------------------------------------------------------------------------
Description
-------------------------------------------------------------------------------
Kurosaki Ichigo is a 15 year old student, with the ability to see ghosts.
His life was forever changed when he met Kuchiki Rukia, a Death God,
who is charged with sending lost souls to the afterlife, known as Soul
Society.

Whilst saving Ichigo from the attack of a malevolent ghost known as a
Hollow, Rukia sustained serious injuries. Unable to finish the battle,
she offers to share her powers, and responsibilities, with Ichigo..

-------------------------------------------------------------------------------
Post Information
-------------------------------------------------------------------------------
Posted by............: Noir
Posted on............: 7/24/2008

related torrents

Torrent name

health leech seeds Size
 


comments (0)

Main Menu