Other

Leverage S01 E07 HDTV avi Ehhhhtozebec [H33T]

  • Download 5x Faster
  • Download torrent
  • Direct Download
  • Rate this torrent +  |  -
Leverage S01 E07 HDTV avi Ehhhhtozebec [H33T]

Free and Direct Download with Usenet.nl 300GB+ free


Torrent info

Name:Leverage S01 E07 HDTV avi Ehhhhtozebec [H33T]

Total Size: 348.64 MB

Magnet: Magnet Link

Seeds: 0

Leechers: 0

Stream: Watch Online @ Movie4u

Last Updated: 2016-08-22 15:10:58 (Update Now)

Torrent added: 2009-08-23 13:48:12





Torrent Files List


tracked_by_h33t_com.txt (Size: 348.64 MB) (Files: 7)

 tracked_by_h33t_com.txt

0.02 KB

 Torrent downloaded from Demonoid.com-1.txt

0.05 KB

 Media Info.txt

2.21 KB

 Leverage S01 E07 HDTV.avi

348.63 MB

 Ehhhhtozebec.nfo

0.30 KB

 Complete Episode Outline.txt

5.10 KB

 About The Show.txt

1.87 KB
 

tracker

leech seeds
 

Torrent description

TNT has given the greenlight to the thrilling, action-packed drama series LEVERAGE, starring Oscar® winner Timothy Hutton (Ordinary People, Nero Wolfe) and executive-produced by Dean Devlin (Independence Day, TNT’s The Librarian) and John Rogers (Cosby). The series follows a team of thieves, hackers and grifters who act as modern-day Robin Hoods, taking revenge against those who use power and wealth to victimize others. Devlin makes his directorial debut on the pilot, which was written by Rogers (Transformers) and Chris Downey (The King of Queens).

In LEVERAGE, Hutton plays former insurance investigator Nate Ford, a once-loyal corporate employee who had recovered millions of dollars in stolen goods for his employer. But when that employer denied his son’s insurance claims and allowed the boy to die, he realized he could no longer work for such an entity.

Out of work and descending into alcoholism, Ford is hired by an aeronautics executive to recover airplane designs the executive claims were stolen by a rival company. Helping him are four highly skilled team members: Parker (Beth Riesgraf – Alvin and the Chipmunks), an expert thief; Alec Hardison (Aldis Hodge – Friday Night Lights), a specialist in Internet and computer fraud; Eliot Spencer (Christian Kane – Into the West), a high-octane “retrieval specialist” who can take out a gang of henchmen without breaking a sweat; and Sophie Devereaux (Gina Bellman – Coupling), a grifter who could win awards for her acting skills during difficult scams. At first the newly formed team is hesitant to trust each other after so many years working alone but being double-crossed changes the dynamic, ultimately forcing them to unite. They emerge from the job realizing they are far better working together than apart. Once they discover they can trust each other the group targets their cons toward the richest, the greediest and the most unjust.

General
Complete name : F:\Clicks\Leverage S01 E05-08 HDTV.avi Ehhhhtozebec [H33T]\Leverage S01 E07 HDTV.avi Ehhhhtozebec [H33T]\Leverage S01 E07 HDTV.avi
Format : AVI
Format/Info : Audio Video Interleave
File size : 349 MiB
Duration : 42mn 42s
Overall bit rate : 1 141 Kbps
Writing application : VirtualDubMod 1.5.10.2 (build 2540/release)
Writing library : VirtualDubMod build 2540/release

Video
Format : MPEG-4 Visual
Format profile : Streaming [email protected]
Format settings, BVOP : Yes
Format settings, QPel : No
Format settings, GMC : No warppoints
Format settings, Matrix : Default
Muxing mode : Packed bitstream
Codec ID : XVID
Codec ID/Hint : XviD
Duration : 42mn 42s
Bit rate : 1 002 Kbps
Width : 736 pixels
Height : 336 pixels
Display aspect ratio : 2.2
Frame rate : 29.970 fps
Resolution : 24 bits
Colorimetry : 4:2:0
Scan type : Progressive
Bits/(Pixel*Frame) : 0.135
Stream size : 306 MiB (88%)
Writing library : XviD 1.1.2 (UTC 2006-11-01)

Audio
Format : MPEG Audio
Format version : Version 1
Format profile : Layer 3
Codec ID : 55
Codec ID/Hint : MP3
Duration : 42mn 42s
Bit rate mode : Constant
Bit rate : 128 Kbps
Channel(s) : 2 channels
Sampling rate : 48.0 KHz
Resolution : 16 bits
Stream size : 39.1 MiB (11%)
Alignment : Aligned on interleaves
Interleave, duration : 33 ms (1.00 video frame)
Interleave, preload duration : 504 ms

related torrents

Torrent name

health leech seeds Size
 

comments (0)

Main Menu