Other

Leverage S01 E05 08 HDTV avi Ehhhhtozebec [H33T]

  • Download 5x Faster
  • Download torrent
  • Direct Download
  • Rate this torrent +  |  -
Leverage S01 E05 08 HDTV avi Ehhhhtozebec [H33T]

Free and Direct Download with Usenet.nl 300GB+ free


Torrent info

Name:Leverage S01 E05 08 HDTV avi Ehhhhtozebec [H33T]

Total Size: 1.37 GB

Magnet: Magnet Link

Seeds: 0

Leechers: 0

Stream: Watch Online @ Movie4u

Last Updated: 2010-08-25 16:46:13 (Update Now)

Torrent added: 2009-08-23 13:47:56





Torrent Files List


tracked_by_h33t_com.txt (Size: 1.37 GB) (Files: 34)

 tracked_by_h33t_com.txt

0.02 KB

 Media Info E05-08.txt

9.05 KB

 Torrent downloaded from Demonoid.com-1.txt

0.05 KB

 Ehhhhtozebec.nfo

0.30 KB

 About The Show.txt

1.87 KB

 Complete Episode Outline.txt

5.10 KB

 Leverage S01 E08 HDTV.avi Ehhhhtozebec [H33T]

  tracked_by_h33t_com.txt.!ut

0.02 KB

  Torrent downloaded from Demonoid.com-1.txt.!ut

0.05 KB

  Media Info.txt.!ut

2.20 KB

  Leverage S01 E08 HDTV.avi.!ut

350.29 MB

  Ehhhhtozebec.nfo.!ut

0.30 KB

  Complete Episode Outline.txt.!ut

5.10 KB

  About The Show.txt.!ut

1.87 KB

 Leverage S01 E07 HDTV.avi Ehhhhtozebec [H33T]

  tracked_by_h33t_com.txt.!ut

0.02 KB

  Torrent downloaded from Demonoid.com-1.txt.!ut

0.05 KB

  Media Info.txt.!ut

2.21 KB

  Leverage S01 E07 HDTV.avi.!ut

348.63 MB

  Ehhhhtozebec.nfo

0.30 KB

  Complete Episode Outline.txt

5.10 KB

  About The Show.txt

1.87 KB

 Leverage S01 E06 HDTV.avi Ehhhhtozebec [H33T]

  tracked_by_h33t_com.txt

0.02 KB

  Torrent downloaded from Demonoid.com-1.txt

0.05 KB

  Media Info.txt

2.29 KB

  Leverage S01 E06 HDTV.avi

350.88 MB

  Ehhhhtozebec.nfo

0.30 KB

  Complete Episode Outline.txt

5.10 KB

  About The Show.txt

1.87 KB

 Leverage S01 E05 HDTV.avi Ehhhhtozebec [H33T]

  tracked_by_h33t_com.txt

0.02 KB

  Torrent downloaded from Demonoid.com-1.txt

0.05 KB

  Media Info.txt

2.20 KB

  Leverage S01 E05 HDTV.avi

349.70 MB

  Ehhhhtozebec.nfo

0.30 KB

  Complete Episode Outline.txt

5.10 KB

  About The Show.txt

1.87 KB
 

Announce URL: http://77.247.176.132:80/announce

Torrent description

General
Complete name : F:\Clicks\Leverage S01 E05-08 HDTV.avi Ehhhhtozebec [H33T]\Leverage S01 E05 HDTV.avi Ehhhhtozebec [H33T]\Leverage S01 E05 HDTV.avi
Format : AVI
Format/Info : Audio Video Interleave
File size : 350 MiB
Duration : 42mn 35s
Overall bit rate : 1 148 Kbps
Writing application : transcode-1.0.5rc4

Video
Format : MPEG-4 Visual
Format profile : Streaming [email protected]
Format settings, BVOP : Yes
Format settings, QPel : No
Format settings, GMC : No warppoints
Format settings, Matrix : Default
Muxing mode : Packed bitstream
Codec ID : XVID
Codec ID/Hint : XviD
Duration : 42mn 35s
Bit rate : 1 004 Kbps
Width : 624 pixels
Height : 352 pixels
Display aspect ratio : 16/9
Frame rate : 23.976 fps
Resolution : 24 bits
Colorimetry : 4:2:0
Scan type : Progressive
Bits/(Pixel*Frame) : 0.191
Stream size : 306 MiB (87%)
Writing library : XviD 1.0.1 (UTC 2004-06-05)

Audio
Format : MPEG Audio
Format version : Version 1
Format profile : Layer 3
Codec ID : 55
Codec ID/Hint : MP3
Duration : 42mn 35s
Bit rate mode : Variable
Bit rate : 131 Kbps
Minimum bit rate : 128 Kbps
Channel(s) : 2 channels
Sampling rate : 48.0 KHz
Resolution : 16 bits
Stream size : 39.9 MiB (11%)
Alignment : Aligned on interleaves
Interleave, duration : 24 ms (0.58 video frame)
Writing library : LAME3.96r
Encoding settings : ABR

================================================

General
Complete name : F:\Clicks\Leverage S01 E05-08 HDTV.avi Ehhhhtozebec [H33T]\Leverage S01 E06 HDTV.avi Ehhhhtozebec [H33T]\Leverage S01 E06 HDTV.avi
Format : AVI
Format/Info : Audio Video Interleave
File size : 351 MiB
Duration : 42mn 31s
Overall bit rate : 1 153 Kbps
Writing application : Nandub v1.0rc2
Writing library : Nandub build 1853/release

Video
Format : MPEG-4 Visual
Format profile : Streaming [email protected]
Format settings, BVOP : Yes
Format settings, QPel : No
Format settings, GMC : No warppoints
Format settings, Matrix : Default
Codec ID : XVID
Codec ID/Hint : XviD
Duration : 42mn 31s
Bit rate : 1 011 Kbps
Width : 624 pixels
Height : 352 pixels
Display aspect ratio : 16/9
Frame rate : 23.976 fps
Resolution : 24 bits
Colorimetry : 4:2:0
Scan type : Progressive
Bits/(Pixel*Frame) : 0.192
Stream size : 307 MiB (88%)
Writing library : XviD 1.2.1 (UTC 2008-12-04)

Audio
Format : MPEG Audio
Format version : Version 1
Format profile : Layer 3
Codec ID : 55
Codec ID/Hint : MP3
Duration : 42mn 31s
Bit rate mode : Variable
Bit rate : 130 Kbps
Nominal bit rate : 128 Kbps
Channel(s) : 2 channels
Sampling rate : 48.0 KHz
Resolution : 16 bits
Video delay : 168ms
Stream size : 39.5 MiB (11%)
Alignment : Aligned on interleaves
Interleave, duration : 24 ms (0.58 video frame)
Interleave, preload duration : 874 ms
Writing library : LAME3.90.
Encoding settings : ABR

=================================================

General
Complete name : F:\Clicks\Leverage S01 E05-08 HDTV.avi Ehhhhtozebec [H33T]\Leverage S01 E07 HDTV.avi Ehhhhtozebec [H33T]\Leverage S01 E07 HDTV.avi
Format : AVI
Format/Info : Audio Video Interleave
File size : 349 MiB
Duration : 42mn 42s
Overall bit rate : 1 141 Kbps
Writing application : VirtualDubMod 1.5.10.2 (build 2540/release)
Writing library : VirtualDubMod build 2540/release

Video
Format : MPEG-4 Visual
Format profile : Streaming [email protected]
Format settings, BVOP : Yes
Format settings, QPel : No
Format settings, GMC : No warppoints
Format settings, Matrix : Default
Muxing mode : Packed bitstream
Codec ID : XVID
Codec ID/Hint : XviD
Duration : 42mn 42s
Bit rate : 1 002 Kbps
Width : 736 pixels
Height : 336 pixels
Display aspect ratio : 2.2
Frame rate : 29.970 fps
Resolution : 24 bits
Colorimetry : 4:2:0
Scan type : Progressive
Bits/(Pixel*Frame) : 0.135
Stream size : 306 MiB (88%)
Writing library : XviD 1.1.2 (UTC 2006-11-01)

Audio
Format : MPEG Audio
Format version : Version 1
Format profile : Layer 3
Codec ID : 55
Codec ID/Hint : MP3
Duration : 42mn 42s
Bit rate mode : Constant
Bit rate : 128 Kbps
Channel(s) : 2 channels
Sampling rate : 48.0 KHz
Resolution : 16 bits
Stream size : 39.1 MiB (11%)
Alignment : Aligned on interleaves
Interleave, duration : 33 ms (1.00 video frame)
Interleave, preload duration : 504 ms

==============================================

General
Complete name : F:\Clicks\Leverage S01 E05-08 HDTV.avi Ehhhhtozebec [H33T]\Leverage S01 E08 HDTV.avi Ehhhhtozebec [H33T]\Leverage S01 E08 HDTV.avi
Format : AVI
Format/Info : Audio Video Interleave
File size : 350 MiB
Duration : 42mn 32s
Overall bit rate : 1 151 Kbps
Writing application : transcode-1.0.5rc4

Video
Format : MPEG-4 Visual
Format profile : Streaming [email protected]
Format settings, BVOP : Yes
Format settings, QPel : No
Format settings, GMC : No warppoints
Format settings, Matrix : Default
Muxing mode : Packed bitstream
Codec ID : XVID
Codec ID/Hint : XviD
Duration : 42mn 32s
Bit rate : 1 006 Kbps
Width : 624 pixels
Height : 352 pixels
Display aspect ratio : 16/9
Frame rate : 23.976 fps
Resolution : 24 bits
Colorimetry : 4:2:0
Scan type : Progressive
Bits/(Pixel*Frame) : 0.191
Stream size : 306 MiB (87%)
Writing library : XviD 1.0.1 (UTC 2004-06-05)

Audio
Format : MPEG Audio
Format version : Version 1
Format profile : Layer 3
Codec ID : 55
Codec ID/Hint : MP3
Duration : 42mn 32s
Bit rate mode : Variable
Bit rate : 132 Kbps
Minimum bit rate : 128 Kbps
Channel(s) : 2 channels
Sampling rate : 48.0 KHz
Resolution : 16 bits
Stream size : 40.2 MiB (11%)
Alignment : Aligned on interleaves
Interleave, duration : 24 ms (0.58 video frame)
Writing library : LAME3.96r
Encoding settings : ABR

No split mkv files that are out of sync
No passwords
Just the goods

Please note, if any .zet files are contained in this folder,they
can easily be opened with editpad pro, damn info viewer, notepad
or any other text editing software

PLEEEEEEEEEEEEEEEEASE SEEEEEEEEEEEEEEEEED !!!

Ehhhhtozebec

related torrents

Torrent name

health leech seeds Size
 

comments (0)

Main Menu