Other

Leverage S01 E05 HDTV avi Ehhhhtozebec [H33T]

  • Download 5x Faster
  • Download torrent
  • Direct Download
  • Rate this torrent +  |  -
Leverage S01 E05 HDTV avi Ehhhhtozebec [H33T]

Free and Direct Download with Usenet.nl 300GB+ free


Torrent info

Name:Leverage S01 E05 HDTV avi Ehhhhtozebec [H33T]

Total Size: 349.70 MB

Magnet: Magnet Link

Seeds: 0

Leechers: 0

Stream: Watch Online @ Movie4u

Last Updated: 2010-08-25 16:46:13 (Update Now)

Torrent added: 2009-08-23 13:47:50





Torrent Files List


tracked_by_h33t_com.txt (Size: 349.70 MB) (Files: 4)

 tracked_by_h33t_com.txt

0.02 KB

 Torrent downloaded from Demonoid.com-1.txt

0.05 KB

 Ehhhhtozebec.nfo

0.30 KB

 Leverage S01 E05 HDTV.avi

349.70 MB
 

Announce URL: http://77.247.176.132:80/announce

Torrent description

General
Complete name : F:\Clicks\Leverage S01 E05-08 HDTV.avi Ehhhhtozebec [H33T]\Leverage S01 E05 HDTV.avi Ehhhhtozebec [H33T]\Leverage S01 E05 HDTV.avi
Format : AVI
Format/Info : Audio Video Interleave
File size : 350 MiB
Duration : 42mn 35s
Overall bit rate : 1 148 Kbps
Writing application : transcode-1.0.5rc4

Video
Format : MPEG-4 Visual
Format profile : Streaming [email protected]
Format settings, BVOP : Yes
Format settings, QPel : No
Format settings, GMC : No warppoints
Format settings, Matrix : Default
Muxing mode : Packed bitstream
Codec ID : XVID
Codec ID/Hint : XviD
Duration : 42mn 35s
Bit rate : 1 004 Kbps
Width : 624 pixels
Height : 352 pixels
Display aspect ratio : 16/9
Frame rate : 23.976 fps
Resolution : 24 bits
Colorimetry : 4:2:0
Scan type : Progressive
Bits/(Pixel*Frame) : 0.191
Stream size : 306 MiB (87%)
Writing library : XviD 1.0.1 (UTC 2004-06-05)

Audio
Format : MPEG Audio
Format version : Version 1
Format profile : Layer 3
Codec ID : 55
Codec ID/Hint : MP3
Duration : 42mn 35s
Bit rate mode : Variable
Bit rate : 131 Kbps
Minimum bit rate : 128 Kbps
Channel(s) : 2 channels
Sampling rate : 48.0 KHz
Resolution : 16 bits
Stream size : 39.9 MiB (11%)
Alignment : Aligned on interleaves
Interleave, duration : 24 ms (0.58 video frame)
Writing library : LAME3.96r
Encoding settings : ABR

related torrents

Torrent name

health leech seeds Size
 

comments (0)

Main Menu