Other

Leverage S01 E02 HDTV avi Ehhhhtozebec [H33T]

  • Download 5x Faster
  • Download torrent
  • Direct Download
  • Rate this torrent +  |  -
Leverage S01 E02 HDTV avi Ehhhhtozebec [H33T]

Anonymous and Direct Download 300GB+ free


Torrent info

Name:Leverage S01 E02 HDTV avi Ehhhhtozebec [H33T]

Total Size: 349.42 MB

Magnet: Magnet Link

Seeds: 0

Leechers: 0

Stream: Watch Online @ Movie4u

Last Updated: 2010-05-29 14:30:51 (Update Now)

Torrent added: 2009-08-23 13:47:39




Torrent Files List


tracked_by_h33t_com.txt (Size: 349.42 MB) (Files: 4)

 tracked_by_h33t_com.txt

0.02 KB

 Torrent downloaded from Demonoid.com-1.txt

0.05 KB

 Leverage S01 E02 HDTV.avi

349.42 MB

 Ehhhhtozebec.nfo

0.30 KB
 

Announce URL: http://77.247.176.132:80/announce

Torrent description

General
Complete name : F:\Clicks\Leverage S01 E01-04 HDTV.avi Ehhhhtozebec [H33T]\Leverage S01 E02 HDTV.avi Ehhhhtozebec [H33T]\Leverage S01 E02 HDTV.avi
Format : AVI
Format/Info : Audio Video Interleave
File size : 349 MiB
Duration : 42mn 34s
Overall bit rate : 1 148 Kbps
Writing application : transcode-1.0.4

Video
Format : MPEG-4 Visual
Format profile : Streaming [email protected]
Format settings, BVOP : Yes
Format settings, QPel : No
Format settings, GMC : No warppoints
Format settings, Matrix : Default
Codec ID : XVID
Codec ID/Hint : XviD
Duration : 42mn 34s
Bit rate : 980 Kbps
Width : 624 pixels
Height : 352 pixels
Display aspect ratio : 16/9
Frame rate : 23.976 fps
Resolution : 24 bits
Colorimetry : 4:2:0
Scan type : Progressive
Bits/(Pixel*Frame) : 0.186
Stream size : 298 MiB (85%)
Writing library : XviD 1.2.1 (UTC 2008-12-04)

Audio
Format : MPEG Audio
Format version : Version 1
Format profile : Layer 3
Codec ID : 55
Codec ID/Hint : MP3
Duration : 42mn 34s
Bit rate mode : Variable
Bit rate : 155 Kbps
Minimum bit rate : 128 Kbps
Channel(s) : 2 channels
Sampling rate : 48.0 KHz
Resolution : 16 bits
Stream size : 47.1 MiB (13%)
Alignment : Aligned on interleaves
Interleave, duration : 24 ms (0.58 video frame)
Writing library : LAME3.98b
Encoding settings : VBR (mtrh)

related torrents

Torrent name

health leech seeds Size
 


comments (0)

Main Menu