Other

Leverage S01 E01 HDTV avi Ehhhhtozebec [H33T]

  • Download 5x Faster
  • Download torrent
  • Direct Download
  • Rate this torrent +  |  -
Leverage S01 E01 HDTV avi Ehhhhtozebec [H33T]

Anonymous and Free Direct Download 300GB+


Torrent info

Name:Leverage S01 E01 HDTV avi Ehhhhtozebec [H33T]

Total Size: 350.66 MB

Magnet: Magnet Link

Seeds: 0

Leechers: 0

Stream: Watch Online @ Movie4u

Last Updated: 2017-05-30 04:50:33 (Update Now)

Torrent added: 2009-08-23 13:47:29



VPN For Torrents

Torrent Files List


tracked_by_h33t_com.txt (Size: 350.66 MB) (Files: 5)

 tracked_by_h33t_com.txt

0.02 KB

 Torrent downloaded from Demonoid.com-1.txt

0.05 KB

 Media Info.txt

2.11 KB

 Leverage S01 E01 HDTV.avi

350.66 MB

 Ehhhhtozebec.nfo

0.30 KB
 

tracker

leech seeds
 

Torrent description

General
Complete name : F:\Clicks\Leverage.S01E01.HDTV.XviD-DOT.avi
Format : AVI
Format/Info : Audio Video Interleave
File size : 351 MiB
Duration : 56mn 38s
Overall bit rate : 865 Kbps
Writing application : transcode-1.0.5rc4

Video
Format : MPEG-4 Visual
Format profile : Streaming [email protected]
Format settings, BVOP : Yes
Format settings, QPel : No
Format settings, GMC : No warppoints
Format settings, Matrix : Default
Muxing mode : Packed bitstream
Codec ID : XVID
Codec ID/Hint : XviD
Duration : 56mn 38s
Bit rate : 719 Kbps
Width : 624 pixels
Height : 352 pixels
Display aspect ratio : 16/9
Frame rate : 23.976 fps
Resolution : 24 bits
Colorimetry : 4:2:0
Scan type : Progressive
Bits/(Pixel*Frame) : 0.137
Stream size : 291 MiB (83%)
Writing library : XviD 1.0.1 (UTC 2004-06-05)

Audio
Format : MPEG Audio
Format version : Version 1
Format profile : Layer 3
Codec ID : 55
Codec ID/Hint : MP3
Duration : 56mn 38s
Bit rate mode : Variable
Bit rate : 134 Kbps
Minimum bit rate : 128 Kbps
Channel(s) : 2 channels
Sampling rate : 48.0 KHz
Resolution : 16 bits
Stream size : 54.1 MiB (15%)
Alignment : Aligned on interleaves
Interleave, duration : 24 ms (0.58 video frame)
Writing library : LAME3.96r
Encoding settings : ABR

related torrents

Torrent name

health leech seeds Size
 


comments (0)

Main Menu