Other

Legend of the Seeker S01E22 HDTV XviD Atilla82

  • Download 5x Faster
  • Download torrent
  • Direct Download
  • Rate this torrent +  |  -
Legend of the Seeker S01E22 HDTV XviD Atilla82

Free and Direct Download with Usenet.nl 300GB+ free


Torrent info

Name:Legend of the Seeker S01E22 HDTV XviD Atilla82

Total Size: 334.18 MB

Magnet: Magnet Link

Seeds: 34

Leechers: 18

Stream: Watch Online @ Movie4u

Last Updated: 2011-01-05 04:38:36 (Update Now)

Torrent added: 2009-08-23 13:46:43





Torrent Files List


Legend.of.the.Seeker.S01E22.HDTV.XviD-Atilla82.avi (Size: 334.18 MB) (Files: 1)

 Legend.of.the.Seeker.S01E22.HDTV.XviD-Atilla82.avi

334.18 MB
 

Announce URL: http://91.191.138.2:80/announce

Torrent description

General
Complete name : Legend.of.the.Seeker.S01E22.HDTV.XviD-Atilla82.avi
Format/Info : Audio Video Interleave
File size : 334 MiB
Duration : 42mn 47s
Overall bit rate : 1 092 Kbps
Writing application : MediaCoder 0.6

Video
Format : MPEG-4 Visual
Format profile : Streaming [email protected]
Format settings, BVOP : Yes
Format settings, Matrix : (H.263)
Codec ID : XVID
Duration : 42mn 47s
Bit rate : 919 Kbps
Width : 720 pixels
Height : 400 pixels
Display aspect ratio : 16/9
Frame rate : 23.976 fps
Resolution : 24 bits
Colorimetry : 4:2:0
Scan type : Progressive
Bits/(Pixel*Frame) : 0.133
Stream size : 281 MiB (84%)
Writing library : XviD 1.2.1 (UTC 2008-12-04)

Audio
Format : MPEG Audio
Format version : Version 1
Format profile : Layer 3
Codec ID : 55
Codec ID/Hint : MP3
Bit rate mode : Constant
Bit rate : 160 Kbps
Channel(s) : 2 channels
Sampling rate : 48.0 KHz
Resolution : 16 bits
Video delay : 42ms
Stream size : 49.0 MiB (15%)
Alignment : Aligned on interleaves
Interleave, duration : 24 ms (0.58 video frame)
Interleave, preload duration : 504 ms
Writing library : LAME3.98

related torrents

Torrent name

health leech seeds Size
 

comments (0)

Main Menu