Electronic

Fatboy Slim The Greatest Hits Why Try Harder [flac] tnt village scambioetico org[byRamasutra]

  • Download 5x Faster
  • Download torrent
  • Direct Download
  • Rate this torrent +  |  -

Torrent info

Name:Fatboy Slim The Greatest Hits Why Try Harder [flac] tnt village scambioetico org[byRamasutra]

Total Size: 506.73 MB

Magnet: Magnet Link

Seeds: 1

Leechers: 0

Stream: Watch Full Movie @ Movie4u

Last Updated: 2015-08-31 00:42:12 (Update Now)

Torrent added: 2009-08-23 13:44:55



VPN For Torrents

Torrent Files List


The Greatest Hits - Why Try Harder.cue (Size: 506.73 MB) (Files: 29)

 The Greatest Hits - Why Try Harder.cue

3.71 KB

 resize.jpg

30.50 KB

 Fatboy Slim - The Greatest Hits - Why Try Harder.log

5.08 KB

 Fatboy Slim - The Greatest Hits - Why Try Harder - That Old Pair Of Jeans.flac

35.83 MB

 Fatboy Slim - The Greatest Hits - Why Try Harder - Sunset (Bird Of Prey).flac

29.80 MB

 Fatboy Slim - The Greatest Hits - Why Try Harder - Slash Dot Dash.flac

23.52 MB

 Fatboy Slim - The Greatest Hits - Why Try Harder - Right Here, Right Now.flac

28.06 MB

 Fatboy Slim - The Greatest Hits - Why Try Harder - Praise You.flac

27.89 MB

 Fatboy Slim - The Greatest Hits - Why Try Harder - Going Out Of My Head.flac

30.67 MB

 Fatboy Slim - The Greatest Hits - Why Try Harder - Gangster Trippin.flac

26.03 MB

 Fatboy Slim - The Greatest Hits - Why Try Harder - Everybody Loves A Carnival.flac

31.72 MB

 Fatboy Slim - The Greatest Hits - Why Try Harder - Champion Sound.flac

22.18 MB

 Fatboy Slim - The Greatest Hits - Why Try Harder - Brimful Of Asha (Norman Cook remix).flac

33.34 MB

 Fatboy Slim - The Greatest Hits - Why Try Harder - Wonderful Night.flac

21.21 MB

 Fatboy Slim - The Greatest Hits - Why Try Harder - Sho Nuff.flac

24.29 MB

 Fatboy Slim - The Greatest Hits - Why Try Harder - Santa Cruz.flac

31.42 MB

 Fatboy Slim - The Greatest Hits - Why Try Harder - I See You Baby (Fatboy Slim remix).flac

28.24 MB

 Fatboy Slim - The Greatest Hits - Why Try Harder - Don't Let The Man Get You Down.flac

25.47 MB

 Fatboy Slim - The Greatest Hits - Why Try Harder - Demons.flac

25.94 MB

 Fatboy Slim - The Greatest Hits - Why Try Harder - Weapon Of Choice.flac

28.85 MB

 Fatboy Slim - The Greatest Hits - Why Try Harder - The Rockafeller Skank.flac

31.76 MB

 Covers

  Fatboy Slim - The Greatest Hits -Why Try Harder [LE][Vid].jpg

54.38 KB

  Fatboy Slim - The Greatest Hits -Why Try Harder [LE][Inside].jpg

95.75 KB

  Fatboy Slim - The Greatest Hits -Why Try Harder [LE][Front].jpg

127.71 KB

  Fatboy Slim - The Greatest Hits -Why Try Harder [LE][CD].jpg

53.80 KB

  Fatboy Slim - The Greatest Hits -Why Try Harder [LE][Back].jpg

145.25 KB

 00. FatBoy -Slim.SFV

3.22 KB

 00. FatBoy -Slim.pls

3.91 KB

 00. FatBoy -Slim.nfo

1.62 KB
 

tracker

leech seeds
 

Torrent description

[color=purple] by Ramasutra [/color]

[color=green]:::->Cover<-:::[/color]

Fatboy Slim   The Greatest Hits   Why Try Harder [flac] tnt village scambioetico org[byRamasutra] preview 0Fatboy Slim   The Greatest Hits   Why Try Harder [flac] tnt village scambioetico org[byRamasutra] preview 1

[color=green]:::->Dati Album<-:::[/color]


[color=orange]Titolo: [/color]Greatest Hits - Why Try Harder
[color=orange]Autore: [/color] Fatboy Slim
[color=orange]Anno: [/color]2006
[color=orange]Genere: [/color]Electronic
[color=orange]Etichetta: [/color]Skint



[color=green]:::->Tracklist<-:::[/color]

1. Rockafeller Skank
2. Praise You
3. Brimful of Asha - Cornershop
(Norman Cook remix)
4. Weapon of Choice
5. Gangster Trippin’
6. I See You Baby - Groove Armada
(Fatboy Slim remix)
7. Wonderful Night
8. Right Here, Right Now
9. Going Out Of My Head
10. Sunset (Bird of Prey)
11. Everybody Loves a Carnival
12. Don't Let The Man Get You Down
13. Demons
14. Sho Nuff
15. Slash Dot Dash 16. Santa Cruz
17. Champion Sound
18. That Old Pair of Jeans

[color=green]:::->Dati Tecnici<-:::[/color]

[color=red] Formato : Flac [/color]
Programma usato [Eac]

[CODE]
Exact Audio Copy V0.99 prebeta 1 from 25. May 2007

EAC extraction logfile from 12. November 2007, 11:35

Fatboy Slim / The Greatest Hits - Why Try Harder

Used drive : _NEC DVD_RW ND-3550A Adapter: 5 ID: 0

Read mode : Secure
Utilize accurate stream : Yes
Defeat audio cache : Yes
Make use of C2 pointers : No

Read offset correction : 12
Overread into Lead-In and Lead-Out : No
Fill up missing offset samples with silence : Yes
Delete leading and trailing silent blocks : No
Used interface : Installed external ASPI interface

Used output format : Internal WAV Routines
Sample format : 44.100 Hz; 16 Bit; Stereo


TOC of the extracted CD

Track | Start | Length | Start sector | End sector
---------------------------------------------------------
1 | 0:00.00 | 3:56.67 | 0 | 17766
2 | 3:56.67 | 3:47.73 | 17767 | 34864
3 | 7:44.65 | 4:00.70 | 34865 | 52934
4 | 11:45.60 | 3:39.61 | 52935 | 69420
5 | 15:25.46 | 3:31.72 | 69421 | 85317
6 | 18:57.43 | 3:30.09 | 85318 | 101076
7 | 22:27.52 | 2:44.58 | 101077 | 113434
8 | 25:12.35 | 3:55.44 | 113435 | 131103
9 | 29:08.04 | 3:42.63 | 131104 | 147816
10 | 32:50.67 | 3:59.26 | 147817 | 165767
11 | 36:50.18 | 4:04.45 | 165768 | 184112
12 | 40:54.63 | 3:18.08 | 184113 | 198970
13 | 44:12.71 | 3:14.31 | 198971 | 213551
14 | 47:27.27 | 3:20.72 | 213552 | 228623
15 | 50:48.24 | 2:55.31 | 228624 | 241779
16 | 53:43.55 | 4:17.49 | 241780 | 261103
17 | 58:01.29 | 2:59.40 | 261104 | 274568
18 | 61:00.69 | 4:43.49 | 274569 | 295842


Track 1, Index 1

Peak level 97.7 %
Track quality 100.0 %
Copy OK

Track 2, Index 0

Peak level 0.2 %
Track quality 100.0 %
Copy OK

Track 2, Index 1

Peak level 99.4 %
Track quality 100.0 %
Copy OK

Track 3, Index 0

Peak level 0.0 %
Track quality 94.3 %
Copy OK

Track 3, Index 1

Peak level 99.1 %
Track quality 100.0 %
Copy OK

Track 4, Index 0

Peak level 0.0 %
Track quality 100.0 %
Copy OK

Track 4, Index 1

Peak level 99.4 %
Track quality 99.9 %
Copy OK

Track 5, Index 0

Peak level 0.8 %
Track quality 100.0 %
Copy OK

Track 5, Index 1

Peak level 99.3 %
Track quality 100.0 %
Copy OK

Track 6, Index 0

Peak level 25.5 %
Track quality 100.0 %
Copy OK

Track 6, Index 1

Peak level 98.5 %
Track quality 100.0 %
Copy OK

Track 7, Index 0

Peak level 0.0 %
Track quality 100.0 %
Copy OK

Track 7, Index 1

Peak level 99.2 %
Track quality 100.0 %
Copy OK

Track 8, Index 0

Peak level 0.5 %
Track quality 100.0 %
Copy OK

Track 8, Index 1

Peak level 98.5 %
Track quality 100.0 %
Copy OK

Track 9, Index 0

Peak level 0.0 %
Track quality 100.0 %
Copy OK

Track 9, Index 1

Peak level 99.4 %
Track quality 99.9 %
Copy OK

Track 10, Index 0

Peak level 0.0 %
Track quality 100.0 %
Copy OK

Track 10, Index 1

Peak level 99.4 %
Track quality 100.0 %
Copy OK

Track 11, Index 0

Peak level 1.2 %
Track quality 100.0 %
Copy OK

Track 11, Index 1

Peak level 99.4 %
Track quality 100.0 %
Copy OK

Track 12, Index 0

Peak level 0.0 %
Track quality 100.0 %
Copy OK

Track 12, Index 1

Peak level 98.3 %
Track quality 100.0 %
Copy OK

Track 13, Index 0

Peak level 0.1 %
Track quality 100.0 %
Copy OK

Track 13, Index 1

Peak level 99.4 %
Track quality 100.0 %
Copy OK

Track 14, Index 0

Peak level 0.0 %
Track quality 100.0 %
Copy OK

Track 14, Index 1

Peak level 99.3 %
Track quality 100.0 %
Copy OK

Track 15, Index 0

Peak level 0.0 %
Track quality 100.0 %
Copy OK

Track 15, Index 1

Peak level 99.3 %
Track quality 99.9 %
Copy OK

Track 16, Index 0

Peak level 10.3 %
Track quality 100.0 %
Copy OK

Track 16, Index 1

Peak level 99.3 %
Track quality 100.0 %
Copy OK

Track 17, Index 0

Peak level 0.0 %
Track quality 100.0 %
Copy OK

Track 17, Index 1

Peak level 99.4 %
Track quality 100.0 %
Copy OK

Track 18, Index 0

Peak level 0.0 %
Track quality 100.0 %
Copy OK

Track 18, Index 1

Peak level 99.4 %
Track quality 100.0 %
Copy OK

No errors occurred

End of status report


[/CODE]

related torrents

Torrent name

health leech seeds Size
 


comments (0)

Main Menu

 

script data-cfasync="false" src="//d2ghscazvn398x.cloudfront.net/?cshgd=690275">