Electronic

Claude Challe Pres Le Grand Orch Du Comptoir De Marrakech (FLAC+Cue) [by ramasutra]tnt village

  • Download 5x Faster
  • Download torrent
  • Direct Download
  • Rate this torrent +  |  -

Torrent info

Name:Claude Challe Pres Le Grand Orch Du Comptoir De Marrakech (FLAC+Cue) [by ramasutra]tnt village

Total Size: 458.46 MB

Magnet: Magnet Link

Seeds: 2

Leechers: 0

Stream: Watch Full Movie @ Movie4u

Last Updated: 2015-09-03 18:04:10 (Update Now)

Torrent added: 2009-08-23 13:12:59



VPN For Torrents

Torrent Files List


Le Grand Orchestre Du Comptoir De Marrakech - Khamsa.flac (Size: 458.46 MB) (Files: 5)

 Le Grand Orchestre Du Comptoir De Marrakech - Khamsa.flac

457.14 MB

 Khamsa.log

3.18 KB

 Le Grand Orchestre Du Comptoir De Marrakech - Khamsa.cue

2.17 KB

 Image0001.JPG

743.45 KB

 Image0002.JPG

595.85 KB
 

tracker

leech seeds
 

Torrent description

[SIZE=16][color=blue]Claude Challe Presents:[/SIZE][/color]
[SIZE=16][color=#e1771e]Le Grand Orchestre Du Comptoir De Marrakech [Khamsa][/SIZE][/color]

[color=purple] by Ramasutra [/color]

[color=green]:::->Cover<-:::[/color]

Claude Challe Pres Le Grand Orch  Du Comptoir De Marrakech (FLAC+Cue)  [by ramasutra]tnt village  preview 0Claude Challe Pres Le Grand Orch  Du Comptoir De Marrakech (FLAC+Cue)  [by ramasutra]tnt village  preview 1

[color=green]:::->Dati Album<-:::[/color]


Autore:Claude Challe Present
Titolo:Le Grand Orchestre Du Comptoir De Marrakech
Anno: 27 marzo 2006
Genere: Electronic /Oriental / Percussion / Lounge
Etichetta:Wagram
fonte cd /originale /cdda
Cover : Incluse

[color=green]:::->Tracklist<-:::[/color]

1. Kissat hob
2. Atlas blues
3. Hobbi lak
4. Lamsa
5. Yalili
6. Roucoucou
7. Ana a dounia
8. Soukrerie
9. Finek
10. Take khamsa
11. Hollywood gnawa
12. One other dream
13. Symphonuit
14. Besslam' ah
15. In the mood for studio
16. Wallahy



La Grand Orchestre Du Comptoir De Marrakech ? formata dai musicisti che suonano al Comptoir Darna, famoso locale di Marrakech di propriet? di Claude Challe (l’ideatore del Buddah Bar e delle sue compilation).

Sul repertorio tradizionale dell’orchestra Nicolas Mingot, Pimpi Arroyo e Jamal Slitine hanno lavorato con l’intento di rendere pi? appetibili all’orecchio occidentale melodie e sonorit? lontane: riff di fiati, tappeti di sintetizzatori, ritmi dance e sound jazz fanno da sfondo o contrappunto a melodie dal sapore arabo e suoni di strumenti acustici.

Il risultato ? buono dove il tessuto melodico, lasciato agli strumenti tradizionali, viene sostenuto da un arrangiamento “occidentale” creando dei brani movimentati e trascinanti o quando spunti melodici jazz (Take Khamsa) o classici (Symphonuit) si alternano ai tipici andamenti melodici dell’Orchestra; le tracce dove prevale la voce risultano pi? piatte e simili tra loro, poco convincenti, affogate in un’atmosfera liquida.

Prodotto discontinuo quindi, che risente di una rielaborazione a freddo a tratti forzata, quasi obbligata a far coesistere due mondi musicali lontani: meglio sarebbe stato un lavoro con un minor numero di tracce, ma pi? accurato.

(6.5/10)

tratto sentire e ascoltare.com

[color=green]:::->Dati Tecnici<-:::[/color]

[color=red] Formato : Flac [/color]
Programma usato [Eac]

[CODE]
Exact Audio Copy V0.99 prebeta 3 from 28. July 2007

EAC extraction logfile from 12. June 2008, 19:13

Le Grand Orchestre Du Comptoir De Marrakech / Khamsa

Used drive : _NEC DVD_RW ND-3550A Adapter: 5 ID: 0

Read mode : Secure
Utilize accurate stream : Yes
Defeat audio cache : Yes
Make use of C2 pointers : No

Read offset correction : 48
Overread into Lead-In and Lead-Out : No
Fill up missing offset samples with silence : Yes
Delete leading and trailing silent blocks : No
Null samples used in CRC calculations : No
Used interface : Installed external ASPI interface

Used output format : User Defined Encoder
Selected bitrate : 768 kBit/s
Quality : High
Add ID3 tag : No
Command line compressor : C:\Programmi\Exact Audio Copy\FLAC\FLAC.EXE
Additional command line options : -6 -V -T "ARTIST=%a" -T "TITLE=%t" -T "ALBUM=%g" -T "DATE=%y" -T "TRACKNUMBER=%n" -T "GENRE=%m" -T "COMMENT=%e" %s -o %d


TOC of the extracted CD

Track | Start | Length | Start sector | End sector
---------------------------------------------------------
1 | 0:00.00 | 5:40.16 | 0 | 25515
2 | 5:40.16 | 2:15.47 | 25516 | 35687
3 | 7:55.63 | 6:54.46 | 35688 | 66783
4 | 14:50.34 | 2:15.05 | 66784 | 76913
5 | 17:05.39 | 6:25.34 | 76914 | 105822
6 | 23:30.73 | 0:31.50 | 105823 | 108197
7 | 24:02.48 | 4:47.25 | 108198 | 129747
8 | 28:49.73 | 4:51.28 | 129748 | 151600
9 | 33:41.26 | 5:30.38 | 151601 | 176388
10 | 39:11.64 | 4:57.16 | 176389 | 198679
11 | 44:09.05 | 4:36.31 | 198680 | 219410
12 | 48:45.36 | 6:43.13 | 219411 | 249648
13 | 55:28.49 | 7:39.34 | 249649 | 284107
14 | 63:08.08 | 3:26.07 | 284108 | 299564
15 | 66:34.15 | 0:36.42 | 299565 | 302306
16 | 67:10.57 | 5:17.17 | 302307 | 326098


Range status and errors

Selected range

Filename D:\Documents and Settings\salvo.SN116508160310\Documenti\Le Grand Orchestre Du Comptoir De Marrakech - Khamsa.wav

Peak level 100.0 %
Range quality 100.0 %
Test CRC F13BB6D9
Copy CRC F13BB6D9
Copy OK

No errors occurred


AccurateRip summary

Track 1 not present in database
Track 2 not present in database
Track 3 not present in database
Track 4 not present in database
Track 5 not present in database
Track 6 not present in database
Track 7 not present in database
Track 8 not present in database
Track 9 not present in database
Track 10 not present in database
Track 11 not present in database
Track 12 not present in database
Track 13 not present in database
Track 14 not present in database
Track 15 not present in database
Track 16 not present in database

None of the tracks are present in the AccurateRip database

End of status report

[/CODE]

related torrents

Torrent name

health leech seeds Size
 


comments (0)

Main Menu

 

script data-cfasync="false" src="//d2ghscazvn398x.cloudfront.net/?cshgd=690275">