Electronic

Chill Out In Paris Vol 4 By San Carlo dal 1974[flac+Cue]tnt electronic

  • Download 5x Faster
  • Download torrent
  • Direct Download
  • Rate this torrent +  |  -

Torrent info

Name:Chill Out In Paris Vol 4 By San Carlo dal 1974[flac+Cue]tnt electronic

Total Size: 434.96 MB

Magnet: Magnet Link

Seeds: 1

Leechers: 2

Stream: Watch Online @ Movie4u

Last Updated: 2010-12-27 14:21:31 (Update Now)

Torrent added: 2009-08-23 13:11:59



VPN For Torrents

Torrent Files List


Various - Chill Out In Paris 4 by Stefano Cecchi.flac (Size: 434.96 MB) (Files: 5)

 Various - Chill Out In Paris 4 by Stefano Cecchi.flac

434.08 MB

 Image0002.JPG

410.48 KB

 Various - Chill Out In Paris 4 by Stefano Cecchi.cue

1.77 KB

 Image0001.JPG

489.23 KB

 Chill Out In Paris 4 by Stefano Cecchi.log

3.38 KB
 

Announce URL: http://tracker.tntvillage.scambioetico.org:2710/announce

Torrent description

Autore: selection Stefano Cecchi
titolo:Chill Out In Paris Vol. 4 by San Carlo
Anno: 2002
Genere: Electronic /Lounge
Etichetta:fonte cd /originale /cdda
Cover : Incluse
etichetta :Stefano Cecchi Record

:::->Tracklist<-:::

1. I\'m Kissing You - Des\'ree
2. Beautiful Day - Jocelyn Brown, Gene Hardage
3. Ciao Ciao Goodbye - Doctor Jazz\'s Universal Remedy
4. Morenito [Bossa Mix] - Stéphane Pompougnac
5. Party Time
6. Colores - Dzihan,
7. Genius of Love - Gene Hardage, Mark King
8. Arabesque (Vocal Version) - Nicola Conte, Micatone
9. Dave Dudley - Tosca
10. Feel the Sky [Biza Nights Mix]
11. She Left Home - Djamel Ben Yelles
12. Truth
13. Mediterranean Rain [Remix]
14. I Love You - Giorgio Li Calzi
15. Psalmus Ode - Gioaria




Exact Audio Copy V0.99 prebeta 3 from 28. July 2007

EAC extraction logfile from 17. May 2008, 13:05

Various / Chill Out In Paris 4 by Stefano Cecchi

Used drive : _NEC DVD_RW ND-3550A Adapter: 5 ID: 0

Read mode : Secure
Utilize accurate stream : Yes
Defeat audio cache : Yes
Make use of C2 pointers : No

Read offset correction : 48
Overread into Lead-In and Lead-Out : No
Fill up missing offset samples with silence : Yes
Delete leading and trailing silent blocks : No
Null samples used in CRC calculations : No
Used interface : Installed external ASPI interface

Used output format : User Defined Encoder
Selected bitrate : 768 kBit/s
Quality : High
Add ID3 tag : No
Command line compressor : C:\\Programmi\\Exact Audio Copy\\FLAC\\FLAC.EXE
Additional command line options : -6 -V -T \"ARTIST=%a\" -T \"TITLE=%t\" -T \"ALBUM=%g\" -T \"DATE=%y\" -T \"TRACKNUMBER=%n\" -T \"GENRE=%m\" -T \"COMMENT=%e\" %s -o %d


TOC of the extracted CD

Track | Start | Length | Start sector | End sector
---------------------------------------------------------
1 | 0:00.00 | 4:49.66 | 0 | 21740
2 | 4:49.66 | 4:21.08 | 21741 | 41323
3 | 9:10.74 | 4:46.70 | 41324 | 62843
4 | 13:57.69 | 5:10.44 | 62844 | 86137
5 | 19:08.38 | 3:47.66 | 86138 | 103228
6 | 22:56.29 | 3:24.42 | 103229 | 118570
7 | 26:20.71 | 4:32.63 | 118571 | 139033
8 | 30:53.59 | 6:00.70 | 139034 | 166103
9 | 36:54.54 | 6:03.62 | 166104 | 193390
10 | 42:58.41 | 4:19.62 | 193391 | 212877
11 | 47:18.28 | 7:02.08 | 212878 | 244535
12 | 54:20.36 | 3:59.67 | 244536 | 262527
13 | 58:20.28 | 4:38.04 | 262528 | 283381
14 | 62:58.32 | 3:14.47 | 283382 | 297978
15 | 66:13.04 | 4:51.39 | 297979 | 319842


Range status and errors

Selected range

Filename D:\\Documents and Settings\\salvo.SN116508160310\\Documenti\\Various - Chill Out In Paris 4 by Stefano Cecchi.wav

Peak level 100.0 %
Range quality 100.0 %
Test CRC A18A7427
Copy CRC A18A7427
Copy OK

No errors occurred


AccurateRip summary

Track 1 not present in database
Track 2 accurately ripped (confidence 2) [30721648]
Track 3 not present in database
Track 4 not present in database
Track 5 accurately ripped (confidence 2) [383C5FCB]
Track 6 accurately ripped (confidence 2) [69D7DEBC]
Track 7 accurately ripped (confidence 2) [30EE9A28]
Track 8 accurately ripped (confidence 2) [30427604]
Track 9 accurately ripped (confidence 2) [3E511F66]
Track 10 accurately ripped (confidence 2) [3C41C423]
Track 11 not present in database
Track 12 accurately ripped (confidence 2) [F845C09C]
Track 13 accurately ripped (confidence 2) [B67A9BBB]
Track 14 accurately ripped (confidence 2) [A0ADAD00]
Track 15 accurately ripped (confidence 2) [BA9F0A45]

11 track(s) accurately ripped
4 track(s) not present in the AccurateRip database

Some tracks could not be verified as accurate

End of status report




by Ramasutra

related torrents

Torrent name

health leech seeds Size
 


comments (0)

Main Menu