Electronic

Chill Out In Paris 2 By Buddha Bar [Flac+cue]tnt electronic[by Ramasutra]

  • Download 5x Faster
  • Download torrent
  • Direct Download
  • Rate this torrent +  |  -
Chill Out In Paris 2 By Buddha Bar [Flac+cue]tnt electronic[by Ramasutra]

Free and Direct Download with Usenet.nl 300GB+ free


Torrent info

Name:Chill Out In Paris 2 By Buddha Bar [Flac+cue]tnt electronic[by Ramasutra]

Total Size: 869.33 MB

Magnet: Magnet Link

Seeds: 5

Leechers: 2

Stream: Watch Online @ Movie4u

Last Updated: 0000-00-00 00:00:00 (Update Now)

Torrent added: 2009-08-23 13:11:58





Torrent Files List


Love (Size: 869.33 MB) (Files: 8)

 Love

  San Carlo dal 1973 love - Chill Out In Paris 2.flac

435.71 MB

  San Carlo dal 1973 love - Chill Out In Paris 2.cue

2.17 KB

  Chill Out In Paris 2.log

3.07 KB

 Image0010.JPG

599.63 KB

 Hate

  San Carlo dal 1973 by Buddha Bar.log

2.88 KB

  chill out in paris 2 - hate - San Carlo dal 1973 by Buddha Bar.flac

432.37 MB

  chill out in paris 2 - hate - San Carlo dal 1973 by Buddha Bar.cue

1.80 KB

 Image0009.JPG

664.50 KB
 

Announce URL: http://tracker.tntvillage.scambioetico.org:2710/announce

Torrent description

Autore: David Visan
titolo:Buddha Bar - Chill Out In Paris Vol.2
Anno: 2002
Genere: Electronic /Ambient/Lounge
Etichetta:fonte cd /originale /cdda
Cover : Incluse
etichetta :George V / Wagram

:::->Tracklist<-:::

CD 1 [mixed]

01. Trumpet Thing - La sonadora [ambient mix] (5:31)
02. Solferino - Wisdom of sands (4:03)
03. Balthazar - Red sand (3:21)
04. Govi - Rising in love (3:49)
05. Guy Manoukian - Ya laure (2:44)
06. Kadim Al Saher - Mo thihitak (4:22)
07. Stamatis Spanoudakis - Dawn at the walls (4:06)
08. Brigid Boden - As tears go by (3:04)
09. Dna - Honolulu’s whispers (4:54)
10. Don Carlos - Still alone (6:48)
11. Patrizia Bulgari - Le parole d’amor (4:41)
12. Govinda - Eclipse (3:11)
13. Tulku - A universe to come (5:24)
14. Gingko Garden - Blossom from India (4:11)
15. Dracy - Sahara (4:34)

CD 2 [mixed]

01. Thierry David - Ibrim ba’al (4:13)
02. Don Peyota - Bulgarian interlude (5:07)
03. Malik - Deep throat (6:34)
04. Anastasios - Illusion of dreams (5:54)
05. J.C. Lemay - Hassid groove (3:07)
06. Zohar - Ehad [Attaboy remix] (5:24)
07. Jad Rahbani - Zeina’s dance [club mix] (4:34)
08. Danny Martinez - Pyramyd (8:38)
09. Dzihan - 2 minutes (4:52)
10. Karsh Kale - Longing (7:25)
11. Stereo Action Unlimited - Lovelight [original version] (3:57)
12. Rosetta Stone - Paris divine (4:28)


use foobar 2000 for listening



Exact Audio Copy V0.99 prebeta 3 from 28. July 2007

EAC extraction logfile from 14. May 2008, 22:09

San Carlo dal 1973 love / Chill Out In Paris 2

Used drive : _NEC DVD_RW ND-3550A Adapter: 5 ID: 0

Read mode : Secure
Utilize accurate stream : Yes
Defeat audio cache : Yes
Make use of C2 pointers : No

Read offset correction : 48
Overread into Lead-In and Lead-Out : No
Fill up missing offset samples with silence : Yes
Delete leading and trailing silent blocks : No
Null samples used in CRC calculations : No
Used interface : Installed external ASPI interface

Used output format : User Defined Encoder
Selected bitrate : 768 kBit/s
Quality : High
Add ID3 tag : No
Command line compressor : C:\\\\Programmi\\\\Exact Audio Copy\\\\FLAC\\\\FLAC.EXE
Additional command line options : -6 -V -T \\\"ARTIST=%a\\\" -T \\\"TITLE=%t\\\" -T \\\"ALBUM=%g\\\" -T \\\"DATE=%y\\\" -T \\\"TRACKNUMBER=%n\\\" -T \\\"GENRE=%m\\\" -T \\\"COMMENT=%e\\\" %s -o %d


TOC of the extracted CD

Track | Start | Length | Start sector | End sector
---------------------------------------------------------
1 | 0:00.00 | 5:31.19 | 0 | 24843
2 | 5:31.19 | 4:03.15 | 24844 | 43083
3 | 9:34.34 | 3:21.29 | 43084 | 58187
4 | 12:55.63 | 3:49.54 | 58188 | 75416
5 | 16:45.42 | 2:44.51 | 75417 | 87767
6 | 19:30.18 | 4:22.39 | 87768 | 107456
7 | 23:52.57 | 4:06.07 | 107457 | 125913
8 | 27:58.64 | 3:04.07 | 125914 | 139720
9 | 31:02.71 | 4:54.33 | 139721 | 161803
10 | 35:57.29 | 6:48.10 | 161804 | 192413
11 | 42:45.39 | 4:41.10 | 192414 | 213498
12 | 47:26.49 | 3:11.36 | 213499 | 227859
13 | 50:38.10 | 5:24.64 | 227860 | 252223
14 | 56:02.74 | 4:11.20 | 252224 | 271068
15 | 60:14.19 | 4:34.55 | 271069 | 291673


Range status and errors

Selected range

Filename D:\\\\Documents and Settings\\\\salvo.SN116508160310\\\\Documenti\\\\San Carlo dal 1973 love - Chill Out In Paris 2.wav

Peak level 100.0 %
Range quality 99.9 %
Test CRC B2A8952E
Copy CRC B2A8952E
Copy OK

No errors occurred


AccurateRip summary

Track 1 not present in database
Track 2 not present in database
Track 3 not present in database
Track 4 not present in database
Track 5 not present in database
Track 6 not present in database
Track 7 not present in database
Track 8 not present in database
Track 9 not present in database
Track 10 not present in database
Track 11 not present in database
Track 12 not present in database
Track 13 not present in database
Track 14 not present in database
Track 15 not present in database

None of the tracks are present in the AccurateRip database

End of status report
-----------------------------------------------------------------------
Exact Audio Copy V0.99 prebeta 3 from 28. July 2007

EAC extraction logfile from 14. May 2008, 21:31

chill out in paris 2 - hate / San Carlo dal 1973 by Buddha Bar

Used drive : _NEC DVD_RW ND-3550A Adapter: 5 ID: 0

Read mode : Secure
Utilize accurate stream : Yes
Defeat audio cache : Yes
Make use of C2 pointers : No

Read offset correction : 48
Overread into Lead-In and Lead-Out : No
Fill up missing offset samples with silence : Yes
Delete leading and trailing silent blocks : No
Null samples used in CRC calculations : No
Used interface : Installed external ASPI interface

Used output format : User Defined Encoder
Selected bitrate : 768 kBit/s
Quality : High
Add ID3 tag : No
Command line compressor : C:\\\\Programmi\\\\Exact Audio Copy\\\\FLAC\\\\FLAC.EXE
Additional command line options : -6 -V -T \\\"ARTIST=%a\\\" -T \\\"TITLE=%t\\\" -T \\\"ALBUM=%g\\\" -T \\\"DATE=%y\\\" -T \\\"TRACKNUMBER=%n\\\" -T \\\"GENRE=%m\\\" -T \\\"COMMENT=%e\\\" %s -o %d


TOC of the extracted CD

Track | Start | Length | Start sector | End sector
---------------------------------------------------------
1 | 0:00.00 | 4:13.11 | 0 | 18985
2 | 4:13.11 | 5:07.45 | 18986 | 42055
3 | 9:20.56 | 6:34.65 | 42056 | 71670
4 | 15:55.46 | 5:54.47 | 71671 | 98267
5 | 21:50.18 | 3:07.07 | 98268 | 112299
6 | 24:57.25 | 5:24.04 | 112300 | 136603
7 | 30:21.29 | 4:34.53 | 136604 | 157206
8 | 34:56.07 | 8:38.20 | 157207 | 196076
9 | 43:34.27 | 4:52.50 | 196077 | 218026
10 | 48:27.02 | 7:25.39 | 218027 | 251440
11 | 55:52.41 | 3:57.09 | 251441 | 269224
12 | 59:49.50 | 4:28.05 | 269225 | 289329
13 | 66:49.55 | 0:19.15 | 300730 | 302169


Range status and errors

Selected range

Filename D:\\\\Documents and Settings\\\\salvo.SN116508160310\\\\Documenti\\\\chill out in paris 2 - hate - San Carlo dal 1973 by Buddha Bar.wav

Peak level 100.0 %
Range quality 100.0 %
Test CRC D3906B3A
Copy CRC D3906B3A
Copy OK

No errors occurred


AccurateRip summary

Track 1 not present in database
Track 2 not present in database
Track 3 not present in database
Track 4 not present in database
Track 5 not present in database
Track 6 not present in database
Track 7 not present in database
Track 8 not present in database
Track 9 not present in database
Track 10 not present in database
Track 11 not present in database
Track 12 not present in database

None of the tracks are present in the AccurateRip database

End of status report

related torrents

Torrent name

health leech seeds Size
 

comments (0)

Main Menu