Electronic

Cafe' Del Mar [Ibiza]Vol 2 [Selection Jose' Padilla], [Lossless Flac]tnt electronic

  • Download 5x Faster
  • Download torrent
  • Direct Download
  • Rate this torrent +  |  -

Torrent info

Name:Cafe' Del Mar [Ibiza]Vol 2 [Selection Jose' Padilla], [Lossless Flac]tnt electronic

Total Size: 454.79 MB

Magnet: Magnet Link

Seeds: 1

Leechers: 0

Stream: Watch Online @ Movie4u

Last Updated: 2015-06-20 13:12:45 (Update Now)

Torrent added: 2009-08-23 13:10:07





Torrent Files List


Volumen Dos.log (Size: 454.79 MB) (Files: 9)

 Volumen Dos.log

2.84 KB

 cover

  V[1].A. - Cafe Del Mar - Ibiza Vol.02 - Inside.jpg

237.98 KB

  V[1].A. - Cafe Del Mar - Ibiza Vol.02 - Inlay.jpg

200.93 KB

  V[1].A. - Cafe Del Mar - Ibiza Vol.02 - Front.jpg

351.21 KB

  V[1].A. - Cafe Del Mar - Ibiza Vol.02 - CD.jpg

214.44 KB

  V[1].A. - Cafe Del Mar - Ibiza Vol.02 - Booklet.jpg

323.40 KB

  cover.jpg

48.36 KB

 Cafe Del Mar - Volumen Dos.flac

453.45 MB

 Cafe Del Mar - Volumen Dos.cue

1.68 KB
 

tracker

leech seeds
 

Torrent description

Autore:Jose Padilla
titolo:Cafe Del Mar [Ibiza] Vol.2
Anno: 1995
Genere: Electronic /Lounge/Chill Out
Etichetta:fonte cd /originale /cdda
Cover : Incluse
etichetta :

:::->Tracklist<-:::

1. Moment Scale [Dubmaster X Remix] - Silent Poets
2. Tarenah [Chill Mix]
3. D*votion - D*Note
4. Easter Song - A Man Called Adam, Eddie Parker
5. Entre Dos Aguas - Paco de Lucía
6. Unity - Marc Antoine
7. Sabor de Verano [the Way Out West Mix] - Jose Padilla
8. Sargasso Sea - Salt Tank
9. Jill (The Making Of...)
10. Everybody Loves the Sunshine - RAMP
11. Feel Good
12. Blinky Blue Eyed Sunrise - Metaluna Mutant
13. Haunted Dancehall - The Sabres of Paradise




[CODE]Exact Audio Copy V0.99 prebeta 3 from 28. July 2007

EAC extraction logfile from 21. May 2008, 7:31

Cafe Del Mar / Volumen Dos

Used drive : _NEC DVD_RW ND-3550A Adapter: 5 ID: 0

Read mode : Secure
Utilize accurate stream : Yes
Defeat audio cache : Yes
Make use of C2 pointers : No

Read offset correction : 48
Overread into Lead-In and Lead-Out : No
Fill up missing offset samples with silence : Yes
Delete leading and trailing silent blocks : No
Null samples used in CRC calculations : No
Used interface : Installed external ASPI interface

Used output format : User Defined Encoder
Selected bitrate : 768 kBit/s
Quality : High
Add ID3 tag : No
Command line compressor : C:\\Programmi\\Exact Audio Copy\\FLAC\\FLAC.EXE
Additional command line options : -6 -V -T \"ARTIST=%a\" -T \"TITLE=%t\" -T \"ALBUM=%g\" -T \"DATE=%y\" -T \"TRACKNUMBER=%n\" -T \"GENRE=%m\" -T \"COMMENT=%e\" %s -o %d


TOC of the extracted CD

Track | Start | Length | Start sector | End sector
---------------------------------------------------------
1 | 0:00.00 | 6:08.67 | 0 | 27666
2 | 6:08.67 | 6:22.20 | 27667 | 56336
3 | 12:31.12 | 7:03.35 | 56337 | 88096
4 | 19:34.47 | 8:05.20 | 88097 | 124491
5 | 27:39.67 | 6:01.13 | 124492 | 151579
6 | 33:41.05 | 5:37.42 | 151580 | 176896
7 | 39:18.47 | 6:29.48 | 176897 | 206119
8 | 45:48.20 | 7:18.60 | 206120 | 239029
9 | 53:07.05 | 4:42.25 | 239030 | 260204
10 | 57:49.30 | 3:36.07 | 260205 | 276411
11 | 61:25.37 | 5:30.03 | 276412 | 301164
12 | 66:55.40 | 6:15.12 | 301165 | 329301
13 | 73:10.52 | 5:46.50 | 329302 | 355301


Range status and errors

Selected range

Filename D:\\Documents and Settings\\salvo.SN116508160310\\Documenti\\Cafe Del Mar - Volumen Dos.wav

Peak level 100.0 %
Range quality 100.0 %
Test CRC 7E3F8985
Copy CRC 7E3F8985
Copy OK

No errors occurred


AccurateRip summary

Track 1 not present in database
Track 2 not present in database
Track 3 not present in database
Track 4 not present in database
Track 5 not present in database
Track 6 not present in database
Track 7 not present in database
Track 8 not present in database
Track 9 not present in database
Track 10 not present in database
Track 11 not present in database
Track 12 not present in database
Track 13 not present in database

None of the tracks are present in the AccurateRip database

End of status report

[/CODE]
by Ramasutra

related torrents

Torrent name

health leech seeds Size

Cafe Del Mar + Ibiza

0 0 2.00 GB 0

Cafe Del Mar Ibiza Vol 3

0 0 72.00 MB 0

Cafe Del Mar Ibiza Vol 1

0 0 70.00 MB 0
 

comments (0)

Main Menu