Electronic

Cafe del Mar Vol 1

  • Download 5x Faster
  • Download torrent
  • Direct Download
  • Rate this torrent +  |  -
Cafe del Mar Vol 1

Anonymous and Direct Download 300GB+ free


Torrent info

Name:Cafe del Mar Vol 1

Total Size: 458.59 MB

Magnet: Magnet Link

Seeds: 0

Leechers: 0

Stream: Watch Online @ Movie4u

Last Updated: 2012-05-14 03:47:12 (Update Now)

Torrent added: 2009-08-23 13:09:59




Torrent Files List


Covers (Size: 458.59 MB) (Files: 16)

 Covers

  V[1].A. - Cafe del Mar Vol.01 - Front.jpg

75.22 KB

  V[1].A. - Cafe del Mar Vol.01 - Back.jpg

92.51 KB

  cafe_del_mar_vol_1-inside.jpg

94.96 KB

 Caf Del Mar Vol.1

5.49 KB

 12. Tabula Rasa - Sunset At The Cafe Del Mar.flac

31.92 MB

 11. Obiman - On The Rocks.flac

38.56 MB

 10. A Man Called Adam - Estelle.flac

42.37 MB

 09. Ver Vlads - Crazy Ivan.flac

45.90 MB

 08. Underworld - Second Hand.flac

43.74 MB

 07. Sisterlove - The Hypnotist.flac

55.17 MB

 06. Leftfield - Fanfare Of Life.flac

38.71 MB

 05. Sun Electric - Sundance.flac

30.02 MB

 04. Penguin Cafe Orchestra - Music For A Found Harmonium.flac

18.25 MB

 03. Sabres Of Paradise - Smokebelch II (Beatless Mix).flac

27.74 MB

 02. William Orbit (Strange Cargo) - The Story Of Light.flac

39.48 MB

 01. Jose Padilla - Agua.flac

46.47 MB
 

Announce URL:

Torrent description

by Ramasutra

Autore:Jose Padilla
titolo:Cafe Del Mar Vol.1
Anno: 1994
Genere: Electronic /Lounge/Chill Out
Etichetta:fonte cd /originale /cdda
Cover : Incluse
etichetta :

:::->Tracklist<-:::

1. Agua - Jose Padilla
2. Story of Light - William Orbit
3. Smokebelch II [Beatless Mix] - The Sabres of Paradise
4. Music for a Found Harmonium
5. Sundance - Sun Electric
6. Fanfare of Life - Leftfield
7. Hypnotist
8. Second Hand - Underworld
9. Crazy Iven - Ver Vlads
10. Estelle - A Man Called Adam
11. On the Rocks
12. Sunset at the Cafe del Mar


Exact Audio Copy V0.99 prebeta 3 from 28. July 2007

EAC extraction logfile from 20. May 2008, 3:07

Jose Padilla / Caf? Del Mar Vol.1

Used drive : _NEC DVD_RW ND-3550A Adapter: 5 ID: 0

Read mode : Secure
Utilize accurate stream : Yes
Defeat audio cache : Yes
Make use of C2 pointers : No

Read offset correction : 48
Overread into Lead-In and Lead-Out : No
Fill up missing offset samples with silence : Yes
Delete leading and trailing silent blocks : No
Null samples used in CRC calculations : No
Used interface : Installed external ASPI interface
Gap handling : Not detected, thus appended to previous track

Used output format : User Defined Encoder
Selected bitrate : 768 kBit/s
Quality : High
Add ID3 tag : No
Command line compressor : C:\\\\Programmi\\\\Exact Audio Copy\\\\FLAC\\\\FLAC.EXE
Additional command line options : -6 -V -T \\\"ARTIST=%a\\\" -T \\\"TITLE=%t\\\" -T \\\"ALBUM=%g\\\" -T \\\"DATE=%y\\\" -T \\\"TRACKNUMBER=%n\\\" -T \\\"GENRE=%m\\\" -T \\\"COMMENT=%e\\\" %s -o %d


TOC of the extracted CD

Track | Start | Length | Start sector | End sector
---------------------------------------------------------
1 | 0:00.00 | 7:37.05 | 0 | 34279
2 | 7:37.05 | 6:15.42 | 34280 | 62446
3 | 13:52.47 | 4:15.73 | 62447 | 81644
4 | 18:08.45 | 2:57.22 | 81645 | 94941
5 | 21:05.67 | 4:26.45 | 94942 | 114936
6 | 25:32.37 | 6:05.15 | 114937 | 142326
7 | 31:37.52 | 8:59.37 | 142327 | 182788
8 | 40:37.14 | 9:00.42 | 182789 | 223330
9 | 49:37.56 | 6:34.10 | 223331 | 252890
10 | 56:11.66 | 6:46.13 | 252891 | 283353
11 | 62:58.04 | 6:23.43 | 283354 | 312121
12 | 69:21.47 | 6:53.20 | 312122 | 343116


Track 1

Filename D:\\\\Documents and Settings\\\\salvo.SN116508160310\\\\Documenti\\\\Agua.wav

Peak level 97.7 %
Track quality 100.0 %
Test CRC 2B026C42
Copy CRC 2B026C42
Track not present in AccurateRip database
Copy OK

Track 2

Filename D:\\\\Documents and Settings\\\\salvo.SN116508160310\\\\Documenti\\\\William Orbit (Strange Cargo) , The Story Of Light.wav

Peak level 97.7 %
Track quality 99.9 %
Test CRC 759E70BC
Copy CRC 759E70BC
Track not present in AccurateRip database
Copy OK

Track 3

Filename D:\\\\Documents and Settings\\\\salvo.SN116508160310\\\\Documenti\\\\Sabres Of Paradise , Smokebelch II (Beatless Mix).wav

Peak level 97.7 %
Track quality 100.0 %
Test CRC E6F86DF4
Copy CRC E6F86DF4
Track not present in AccurateRip database
Copy OK

Track 4

Filename D:\\\\Documents and Settings\\\\salvo.SN116508160310\\\\Documenti\\\\Penguin Cafe Orchestra , Music For A Found Harmonium.wav

Peak level 97.7 %
Track quality 99.9 %
Test CRC 427CF05C
Copy CRC 427CF05C
Track not present in AccurateRip database
Copy OK

Track 5

Filename D:\\\\Documents and Settings\\\\salvo.SN116508160310\\\\Documenti\\\\Sun Electric , Sundance.wav

Peak level 97.7 %
Track quality 100.0 %
Test CRC F32F76A5
Copy CRC F32F76A5
Track not present in AccurateRip database
Copy OK

Track 6

Filename D:\\\\Documents and Settings\\\\salvo.SN116508160310\\\\Documenti\\\\Leftfield , Fanfare Of Life.wav

Peak level 97.7 %
Track quality 100.0 %
Test CRC 7E0D8C4A
Copy CRC 7E0D8C4A
Track not present in AccurateRip database
Copy OK

Track 7

Filename D:\\\\Documents and Settings\\\\salvo.SN116508160310\\\\Documenti\\\\Sisterlove , The Hypnotist.wav

Peak level 97.7 %
Track quality 100.0 %
Test CRC EDF73D1E
Copy CRC EDF73D1E
Track not present in AccurateRip database
Copy OK

Track 8

Filename D:\\\\Documents and Settings\\\\salvo.SN116508160310\\\\Documenti\\\\Underworld , Second Hand.wav

Peak level 97.7 %
Track quality 100.0 %
Test CRC 9F5ABFD2
Copy CRC 9F5ABFD2
Track not present in AccurateRip database
Copy OK

Track 9

Filename D:\\\\Documents and Settings\\\\salvo.SN116508160310\\\\Documenti\\\\Ver Vlads , Crazy Ivan.wav

Peak level 97.7 %
Track quality 99.9 %
Test CRC CD510048
Copy CRC CD510048
Track not present in AccurateRip database
Copy OK

Track 10

Filename D:\\\\Documents and Settings\\\\salvo.SN116508160310\\\\Documenti\\\\A Man Called Adam , Estelle.wav

Peak level 97.7 %
Track quality 100.0 %
Test CRC 4748B4F9
Copy CRC 4748B4F9
Track not present in AccurateRip database
Copy OK

Track 11

Filename D:\\\\Documents and Settings\\\\salvo.SN116508160310\\\\Documenti\\\\Obiman , On The Rocks.wav

Peak level 97.7 %
Track quality 100.0 %
Test CRC A44DD93E
Copy CRC A44DD93E
Track not present in AccurateRip database
Copy OK

Track 12

Filename D:\\\\Documents and Settings\\\\salvo.SN116508160310\\\\Documenti\\\\Tabula Rasa , Sunset At The Cafe Del Mar.wav

Peak level 92.1 %
Track quality 100.0 %
Test CRC F3253817
Copy CRC F3253817
Track not present in AccurateRip database
Copy OK


None of the tracks are present in the AccurateRip database

No errors occurred

End of status report

related torrents

Torrent name

health leech seeds Size

Cafe del mar Vol 12 CD 1

2 8 103.10 MB 0
 


comments (0)

Main Menu