Electronic

Cafe del Mar Ibiza Vol 3 [Flac+Cue] Tnt electronic

  • Download 5x Faster
  • Download torrent
  • Direct Download
  • Rate this torrent +  |  -

Torrent info

Name:Cafe del Mar Ibiza Vol 3 [Flac+Cue] Tnt electronic

Total Size: 445.98 MB

Magnet: Magnet Link

Seeds: 2

Leechers: 0

Stream: Watch Full Movie @ Movie4u

Last Updated: 2015-11-24 17:20:19 (Update Now)

Torrent added: 2009-08-23 13:09:58



VPN For Torrents

Torrent Files List


Volume 3.log (Size: 445.98 MB) (Files: 6)

 Volume 3.log

2.84 KB

 Cover

  V[1].A. - Cafe Del Mar - Ibiza Vol.03 - Front.jpg

90.95 KB

  V[1].A. - Cafe Del Mar - Ibiza Vol.03 - CD.jpg

56.59 KB

  V[1].A. - Cafe Del Mar - Ibiza Vol.03 - Back.jpg

69.68 KB

 Cafe Del Mar - Volume 3.flac

445.76 MB

 Cafe Del Mar - Volume 3.cue

1.57 KB
 

tracker

leech seeds
 

Torrent description

Autore:aa/vv
titolo:Cafe Del Mar [Ibiza] Vol.3
Anno:1996
Genere: Electronic /Lounge/Chill Out
Etichetta:fonte cd /originale /cdda
Cover : Incluse
etichetta :react

:::->Tracklist<-:::

01 - Padilla, José - Walking On Air
02 - Nova Nova - Tones
03 - Metheny, Pat - Sueno Con Mexico
04 - Afterlife - Blue Bar
05 - Miro - Emotions Of Paradise
06 - Nightmares On Wax - Nights Interlude
07 - Eighth Wave - Panama Bazaar
08 - Pressure Drop - Dusk
09 - Neri, Alex - Asia
10 - Moodswings - Redemption Song
11 - Fazed Idjuts feat. Sally Rodgers - Dust Of Life
12 - Beat Foundation - My Freedom
13 - Heavyshift - Last Picture Show

Exact Audio Copy V0.99 prebeta 3 from 28. July 2007

EAC extraction logfile from 21. May 2008, 10:09

Cafe Del Mar / Volume 3

Used drive : _NEC DVD_RW ND-3550A Adapter: 5 ID: 0

Read mode : Secure
Utilize accurate stream : Yes
Defeat audio cache : Yes
Make use of C2 pointers : No

Read offset correction : 48
Overread into Lead-In and Lead-Out : No
Fill up missing offset samples with silence : Yes
Delete leading and trailing silent blocks : No
Null samples used in CRC calculations : No
Used interface : Installed external ASPI interface

Used output format : User Defined Encoder
Selected bitrate : 768 kBit/s
Quality : High
Add ID3 tag : No
Command line compressor : C:\\Programmi\\Exact Audio Copy\\FLAC\\FLAC.EXE
Additional command line options : -6 -V -T \"ARTIST=%a\" -T \"TITLE=%t\" -T \"ALBUM=%g\" -T \"DATE=%y\" -T \"TRACKNUMBER=%n\" -T \"GENRE=%m\" -T \"COMMENT=%e\" %s -o %d


TOC of the extracted CD

Track | Start | Length | Start sector | End sector
---------------------------------------------------------
1 | 0:00.00 | 6:12.65 | 0 | 27964
2 | 6:12.65 | 6:17.18 | 27965 | 56257
3 | 12:30.08 | 5:54.58 | 56258 | 82865
4 | 18:24.66 | 6:48.30 | 82866 | 113495
5 | 25:13.21 | 7:57.12 | 113496 | 149282
6 | 33:10.33 | 3:25.24 | 149283 | 164681
7 | 36:35.57 | 6:41.20 | 164682 | 194776
8 | 43:17.02 | 5:43.22 | 194777 | 220523
9 | 49:00.24 | 5:23.50 | 220524 | 244798
10 | 54:23.74 | 6:39.30 | 244799 | 274753
11 | 61:03.29 | 7:17.01 | 274754 | 307529
12 | 68:20.30 | 6:08.18 | 307530 | 335147
13 | 74:28.48 | 3:48.16 | 335148 | 352263


Range status and errors

Selected range

Filename D:\\Documents and Settings\\salvo.SN116508160310\\Documenti\\Cafe Del Mar - Volume 3.wav

Peak level 100.0 %
Range quality 100.0 %
Test CRC 20F4789C
Copy CRC 20F4789C
Copy OK

No errors occurred


AccurateRip summary

Track 1 not present in database
Track 2 not present in database
Track 3 not present in database
Track 4 not present in database
Track 5 not present in database
Track 6 not present in database
Track 7 not present in database
Track 8 not present in database
Track 9 not present in database
Track 10 not present in database
Track 11 not present in database
Track 12 not present in database
Track 13 not present in database

None of the tracks are present in the AccurateRip database

End of status report


By Ramasutra

related torrents

Torrent name

health leech seeds Size

Cafe Del Mar Ibiza Vol 3

0 0 72.00 MB 0
 


comments (0)

Main Menu

 

script data-cfasync="false" src="//d2ghscazvn398x.cloudfront.net/?cshgd=690275">