Electronic

Buddha Sound Vol 1 , Vol 2 ,Vol 3 [Flac+cue]By Ramasutra

  • Download 5x Faster
  • Download torrent
  • Direct Download
  • Rate this torrent +  |  -
Buddha Sound Vol 1 , Vol 2 ,Vol 3 [Flac+cue]By Ramasutra

Free and Direct Download with Usenet 300GB+ free


Torrent info

Name:Buddha Sound Vol 1 , Vol 2 ,Vol 3 [Flac+cue]By Ramasutra

Total Size: 1.02 GB

Magnet: Magnet Link

Seeds: 0

Leechers: 0

Stream: Watch Online @ Movie4u

Last Updated: 2014-12-24 05:44:57 (Update Now)

Torrent added: 2009-08-23 13:09:07




Torrent Files List


cover (Size: 1.02 GB) (Files: 15)

 cover

  vol.3.JPG

691.50 KB

  RETRO BUDDHA SOUNDS.JPG

585.81 KB

  RETRO.JPG

783.74 KB

  BUDDHA SOUNDS VOL.1.JPG

444.66 KB

  cover.JPG

727.54 KB

  BUDDHA SOUNDS II -THE ARABIAN DREAM.JPG

544.50 KB

 Buddha Sound Vol.3 Chill In Tibet

  III Chill In Tibet.log

3.92 KB

  Buddha Sounds - III Chill In Tibet.flac

320.93 MB

  Buddha Sounds - III Chill In Tibet.cue

1.88 KB

 Buddha Sound Vol.2 The Arabic Dream

  Various - Buddha Sounds II.flac

371.76 MB

  Various - Buddha Sounds II.cue

1.74 KB

  Buddha Sounds II.log

3.48 KB

 Buddha sound

  Various - Buddha Sounds 1, A Personal Voyage Into Dowtempo Lands.flac

348.96 MB

  Various - Buddha Sounds 1, A Personal Voyage Into Dowtempo Lands.cue

1.78 KB

  Buddha Sounds 1, A Personal Voyage Into Dowtempo Lands.log

3.32 KB
 

Announce URL:

Torrent description

[SIZE=16][color=green]Buddha Sounds Vol. 1/ 2 /3 [/SIZE][/color]

[color=purple] by Ramasutra [/color]

[SIZE=23][color=purple]Buddha Sounds Vol. 1 [/SIZE][/color]

[color=green]:::->Cover<-:::[/color]


Buddha Sound Vol 1 , Vol 2 ,Vol 3 [Flac+cue]By Ramasutra preview 0
[color=green]:::->Dati Album<-:::[/color]

[color=orange]Titolo: [/color]Buddha sounds I
[color=orange]Autore: [/color] Various artists
[color=orange]Anno: [/color]2002
[color=orange]Genere: [/color]Compilation, Chillout
[color=orange]Etichetta: [/color]Music Brokers Arg


[color=green]:::->Tracklist<-:::[/color]

1. \"Search Is Over (Original Edit) - Eli Kazah\"
2. \"Aldala (Andaluz Mix) - Amira Alaf\"
3. \"You Are The Sunshine (Vocal Mix) - Lazy Action\"
4. \"Juice (Alex\'s Remix) - Deep B.\"
5. \"Tibet\'s Sun (Buddha Edit) - Biyaba\"
6. \"Return Home (Tee2 Remix) - Eli Kazah\"
7. \"Myati (Deep Sounds Edit) - Orleya\"
8. \"Mope Okerh (Soviet Remix) - Zoia Vitkovskaia\"
9. \"Into The Universe (Eternal Dub Mix) - Freedom Dub\"
10. \"Kashmir Ju-Ju (Kevin\'s Abstract Mix) - First Street\"
11. \"Sanctis (Paul\'s Remix) - Le Griser\"
12. \"Ishtar (Original Mix)\"
13. \"Deep Stuff (Part II) - Mariscal Foch\"
14. \"Miracle City (Overground Mix) - Love Reprise\"
---------------------------------------------------------------------------------------------------------------------
[SIZE=16][color=purple]Buddha Sounds Vol. 2 - The Arabian Dream[/SIZE][/color]

[color=green]:::->Cover<-:::[/color]

Buddha Sound Vol 1 , Vol 2 ,Vol 3 [Flac+cue]By Ramasutra preview 1


[color=green]:::->Dati Album<-:::[/color]

[color=orange]Titolo: [/color]Buddha sounds II (The Arabic Dream)
[color=orange]Autore: [/color] Various artists
[color=orange]Anno: [/color]2003
[color=orange]Genere: [/color]Compilation, Chillout
[color=orange]Etichetta: [/color]Music Brokers Arg


[color=green]:::->Tracklist<-:::[/color]

01. Meloscience Corp. - Sinsym Flight (Amanjena Mix)
02. Dew - Please Say Goodbye
03. Orleya Kas - Under the Sun (Original Mix)
04. Miss Hansen - All my dreams
05. Lila Liu feat. Djamal - The love supreme
06. Desert Blend - Xanadu (Mamouinia Edit)
07. Eli Kazah - Let me go
08. Dew - Nair
09. Uschi - I\'m missing you (Still missing edit)
10. Freedom Dub - Flash
11. Love Reprise - A special gift (Mystic mix)
12. Seoan - Why
13. Maia Krasnaia - On ledianói
14. Speachless Project - Snow desert
15. Seoan - Far from paradise (Heaven voices mix)
16. Uschi - Out of my life
----------------------------------------------------------------------------------------------------------------------
[SIZE=23][color=purple]Buddha Sounds III -Chill in Tibet [/SIZE][/color]

[color=green]:::->Cover<-:::[/color]

Buddha Sound Vol 1 , Vol 2 ,Vol 3 [Flac+cue]By Ramasutra preview 2

[color=green]:::->Dati Album<-:::[/color]

[color=red] Titolo:Buddha Sounds III -Chill in Tibet
Artisti: VARI
Anno: 10 gennaio 2006
Genere: Ambient -Ethnic-Lounge
Etichetta: Music Brokers Arg
cover: Incluse solo front [/color]


[color=green]:::->Tracklist<-:::[/color]

1. Beyond This Time (Landscape Mix)
2. In My World (Oriental Vocals By: Shankari Lasyal)
3. If I Love You
4. Khandahalha (Alidi Remix)
5. If We Are To Survive
6. All The Same (Tribe Beat Mix)
7. What Is Right? (Downtempo Remix)
8. To Shto Moio
9. Thinking Of You (Vocal Mix)
10. Eyes Closed
11. Some Days (Pangean Remix)
12. Shine On (Original Edit)
13. I Will Try
14. All I Need (Lovin\' Mix)


[color=green]:::->Recensione<-:::[/color]



[color=green]:::->Dati Tecnici<-:::[/color]

[color=red] Formato : Flac [/color]
Programma usato [Eac]

[CODE]Exact Audio Copy V0.99 prebeta 3 from 28. July 2007

EAC extraction logfile from 5. June 2008, 13:13

Various / Buddha Sounds 1, A Personal Voyage Into Dowtempo Lands

Used drive : _NEC DVD_RW ND-3550A Adapter: 5 ID: 0

Read mode : Secure
Utilize accurate stream : Yes
Defeat audio cache : Yes
Make use of C2 pointers : No

Read offset correction : 48
Overread into Lead-In and Lead-Out : No
Fill up missing offset samples with silence : Yes
Delete leading and trailing silent blocks : No
Null samples used in CRC calculations : No
Used interface : Installed external ASPI interface

Used output format : User Defined Encoder
Selected bitrate : 768 kBit/s
Quality : High
Add ID3 tag : No
Command line compressor : C:\\Programmi\\Exact Audio Copy\\FLAC\\FLAC.EXE
Additional command line options : -6 -V -T \"ARTIST=%a\" -T \"TITLE=%t\" -T \"ALBUM=%g\" -T \"DATE=%y\" -T \"TRACKNUMBER=%n\" -T \"GENRE=%m\" -T \"COMMENT=%e\" %s -o %d


TOC of the extracted CD

Track | Start | Length | Start sector | End sector
---------------------------------------------------------
1 | 0:00.00 | 1:20.05 | 0 | 6004
2 | 1:20.05 | 4:33.05 | 6005 | 26484
3 | 5:53.10 | 5:09.64 | 26485 | 49723
4 | 11:02.74 | 4:38.07 | 49724 | 70580
5 | 15:41.06 | 2:56.43 | 70581 | 83823
6 | 18:37.49 | 4:54.70 | 83824 | 105943
7 | 23:32.44 | 4:26.32 | 105944 | 125925
8 | 27:59.01 | 4:31.30 | 125926 | 146280
9 | 32:30.31 | 4:22.22 | 146281 | 165952
10 | 36:52.53 | 4:42.69 | 165953 | 187171
11 | 41:35.47 | 4:16.54 | 187172 | 206425
12 | 45:52.26 | 4:28.18 | 206426 | 226543
13 | 50:20.44 | 4:34.42 | 226544 | 247135
14 | 54:55.11 | 2:32.50 | 247136 | 258585


Range status and errors

Selected range

Filename D:\\Documents and Settings\\salvo.SN116508160310\\Documenti\\Various - Buddha Sounds 1, A Personal Voyage Into Dowtempo Lands.wav

Peak level 100.0 %
Range quality 100.0 %
Test CRC 20561A21
Copy CRC 20561A21
Copy OK

No errors occurred


AccurateRip summary

Track 1 accurately ripped (confidence 1) [D1306B61]
Track 2 accurately ripped (confidence 1) [0A9591D4]
Track 3 accurately ripped (confidence 1) [326EA39C]
Track 4 accurately ripped (confidence 1) [141A7C1D]
Track 5 accurately ripped (confidence 1) [F1867A87]
Track 6 accurately ripped (confidence 1) [232AA280]
Track 7 accurately ripped (confidence 1) [9E6F823A]
Track 8 accurately ripped (confidence 1) [F0A86B7E]
Track 9 accurately ripped (confidence 1) [C38F99A7]
Track 10 accurately ripped (confidence 1) [1FCBF917]
Track 11 accurately ripped (confidence 1) [2387C8BC]
Track 12 accurately ripped (confidence 1) [B4024D1D]
Track 13 accurately ripped (confidence 1) [9834F66D]
Track 14 accurately ripped (confidence 1) [8022B36B]

14 track(s) accurately ripped


Some tracks could not be verified as accurate

End of status report

[/CODE]

related torrents

Torrent name

health leech seeds Size
 

comments (0)

Main Menu