Electronic

Armin van Buuren A State of Trance 2004 cd1 mp3

  • Download 5x Faster
  • Download torrent
  • Direct Download
  • Rate this torrent +  |  -
Armin van Buuren A State of Trance 2004 cd1 mp3

Free and Direct Download with Usenet.nl 300GB+ free


Torrent info

Name:Armin van Buuren A State of Trance 2004 cd1 mp3

Total Size: 122.42 MB

Magnet: Magnet Link

Seeds: 0

Leechers: 1

Stream: Watch Online @ Movie4u

Last Updated: 2010-08-02 16:31:33 (Update Now)

Torrent added: 2009-08-23 12:50:47





Torrent Files List


Armin van Buuren - A State of Trance 2004-cd1.mp3 (Size: 122.42 MB) (Files: 1)

 Armin van Buuren - A State of Trance 2004-cd1.mp3

122.42 MB
 

Announce URL: http://tracker.prq.to/announce

Torrent description

TITLE "(Title N.N.)"
FILE "Armin van Buuren - A State of Trance 2004-cd1.mp3" MP3
TRACK 01 AUDIO
TITLE "Tranquility"
PERFORMER "Mark Otten"
INDEX 01 00:00:00
TRACK 02 AUDIO
TITLE "Sahara"
PERFORMER "Solid Globe"
INDEX 01 07:10:11
TRACK 03 AUDIO
TITLE "Under The Sun (Solar Stone Remix)"
PERFORMER "Whirpool"
INDEX 01 12:58:13
TRACK 04 AUDIO
TITLE "Signs From The Universe"
PERFORMER "Three Drives"
INDEX 01 20:16:28
TRACK 05 AUDIO
TITLE "Lady Blue (Original Beat Mix)"
PERFORMER "Airwave"
INDEX 01 24:30:40
TRACK 06 AUDIO
TITLE "Velvet Morning (Aalto Remix)"
PERFORMER "Kyau Vs Albert"
INDEX 01 30:23:41
TRACK 07 AUDIO
TITLE "Espace (Phynn Mix)"
PERFORMER "Fictivision Vs Phynn"
INDEX 01 35:25:35
TRACK 08 AUDIO
TITLE "Future Funland (Astura Remix)"
PERFORMER "Perpetuous Dreamer"
INDEX 01 41:01:49
TRACK 09 AUDIO
TITLE "The Search For Freedom"
PERFORMER "Active Sight"
INDEX 01 46:02:01
TRACK 10 AUDIO
TITLE "Alba"
PERFORMER "Super 8"
INDEX 01 52:03:22
TRACK 11 AUDIO
TITLE "Satellite (Original Above And Beyond Remix)"
PERFORMER "Oceanlab"
INDEX 01 58:03:27
TRACK 12 AUDIO
TITLE "Spiral"
PERFORMER "Robert Nickson"
INDEX 01 63:49:13
TRACK 13 AUDIO
TITLE "Burned With Desire (Rising Star Remix)"
PERFORMER "Armin Van Buuren"
INDEX 01 70:43:34


related torrents

Torrent name

health leech seeds Size
 

comments (0)

Main Menu