Electronic

Arabica Vol 1, Vol 2 ,Vol 3 [Flac+Cue]by Ramasutra[Tnt village scambioetico]

  • Download 5x Faster
  • Download torrent
  • Direct Download
  • Rate this torrent +  |  -
Arabica Vol 1, Vol 2 ,Vol 3 [Flac+Cue]by Ramasutra[Tnt village scambioetico]

Free and Direct Download with Usenet.nl 300GB+ free


Torrent info

Name:Arabica Vol 1, Vol 2 ,Vol 3 [Flac+Cue]by Ramasutra[Tnt village scambioetico]

Total Size: 1.36 GB

Magnet: Magnet Link

Seeds: 0

Leechers: 2

Stream: Watch Online @ Movie4u

Last Updated: 2016-02-01 06:55:06 (Update Now)

Torrent added: 2009-08-23 12:50:32





Torrent Files List


Cover (Size: 1.36 GB) (Files: 13)

 Cover

  Image0021.JPG

444.32 KB

  Image0023.JPG

505.63 KB

  Image0019.JPG

661.12 KB

  [AllCDCovers]_arabica_2005_retail_cd-back.jpg

199.95 KB

 Arabica Vol.3

  Volume 3 - Voyages Into North African Sound.log

2.99 KB

  Arabica - Volume 3 - Voyages Into North African Sound.flac

468.59 MB

  Arabica - Volume 3 - Voyages Into North African Sound.cue

1.68 KB

 Arabica vol.2

  Volume 2 - Voyages Into North African Sound.log

2.99 KB

  Arabica - Volume 2 - Voyages Into North African Sound.flac

441.91 MB

  Arabica - Volume 2 - Voyages Into North African Sound.cue

1.74 KB

 arabica

  Volume 1 - A North African Voyage Into Sound.log

3.31 KB

  Arabica - Volume 1 - A North African Voyage Into Sound.flac

476.02 MB

  Arabica - Volume 1 - A North African Voyage Into Sound.cue

1.75 KB
 

tracker

leech seeds
 

Torrent description

[SIZE=16][color=green] [/SIZE]Arabica vol. 1,vol.2, vol.3 Voyages Into North African Sound
[/color]

[color=purple] by Ramasutra [/color]

[SIZE=23][color=purple] Arabica vol. 1[/SIZE][/color]

[color=green]:::->Cover<-:::[/color]

Arabica Vol 1, Vol 2 ,Vol 3 [Flac+Cue]by Ramasutra[Tnt village scambioetico] preview 0

[color=green]:::->Dati Album<-:::[/color]

[color=orange]Titolo: [/color]Arabica vol.1
[color=orange]Autore: [/color] Various artists
[color=orange]Anno: [/color]2000
[color=orange]Genere: [/color]Compilation, Electronic,Oriental ,Ambient,Ethnic
[color=orange]Etichetta: [/color]Bar de lune


[color=green]:::->Tracklist<-:::[/color]

1. Ya Rayah - Taha, Rachid
2. Pomegranate - Transglobal Underground
3. 1st Transmission - Alfa X
4. Calling - Pressure Drop (1)
5. Caravane - Radar (4)
6. Desert Dancer - Nickodemus (1)
7. Cairo Bar - Digital Bled
8. Ehad - Zohar Liste
9. Shashkin - Tekbilek, Omar Faruk
10. Nouar - Rimitti, Cheikha
11. Just You And I - dZihan & Kamien
12. Tiziri - Allam, Djamel
13. Didi - Khaled, Cheb
14. Keep On - Goze, Christophe


---------------------------------------------------------------------------------------------------------------------
[SIZE=16][color=purple]Arabica Vol.2[/SIZE][/color]

[color=green]:::->Cover<-:::[/color]

Arabica Vol 1, Vol 2 ,Vol 3 [Flac+Cue]by Ramasutra[Tnt village scambioetico] preview 1


[color=green]:::->Dati Album<-:::[/color]

[color=orange]Titolo: [/color]Buddha sounds II (The Arabic Dream)
[color=orange]Autore: [/color] Various artists
[color=orange]Anno: [/color]2001
[color=orange]Genere: [/color]Compilation, Electronic,Oriental ,Ambient,Ethnic
[color=orange]Etichetta: [/color]bar de lune


[color=green]:::->Tracklist<-:::[/color]

1. Hayati - Jah Wobble & Temple Of Sound
2. Mad Keys - Alpha X
3. Under Palms - Us Conductors
4. Arabiant - Radar (4)
5. Deep Throat - Malik
6. Trance Dance - Baroudi, Hamid
7. Amulet - Atlas, Natacha
8. Digital Garab - Momo
9. Fantasy - Oojami
10. Barra Barra - Taha, Rachid
11. Fonkarabic - Digital Bled
12. La Folle Esperance - Macias, Enrico
13. Sketches Of Egypt - Zohar
14. Salaam - Youcef

----------------------------------------------------------------------------------------------------------------------
[SIZE=23][color=purple] [/SIZE]Arabica vol.3 [/color]

[color=green]:::->Cover<-:::[/color]

Arabica Vol 1, Vol 2 ,Vol 3 [Flac+Cue]by Ramasutra[Tnt village scambioetico] preview 2

[color=green]:::->Dati Album<-:::[/color]

[color=red] Titolo:Arabica .vol.3
Artisti: VARI
Anno: 2002
Genere:Compilation, Electronic,Oriental ,Ambient,Ethnic
Etichetta: Bar de Lune
cover: Incluse [/color]


[color=green]:::->Tracklist<-:::[/color]

1. Free Souls - Nickodemus (1)
2. Yaraz - Minnassian, Levon
3. Distance - Radar (4)
4. Macumba - Baroudi, Hamid
5. Bastet - Atlas, Natacha
6. Imazighen - NAAB
7. Esperando - Digital Bled
8. Far East - Exodus Quartet
9. Half The Hard Way - U-Roy
10. Hojar - Al-Pha X
11. Us Conductors - Us Conductors
12. Trance Europe Express - Malik
13. A Muey A Muey - Kandusha, Aisha Jamming Effects
15. Return Of The Heretic - Badawi



Nickodemus - Desert Dancer (Zeb\'s Slow Camel Ride Remix)

[youtube=NWgphC2nNww]

[color=green]:::->Dati Tecnici<-:::[/color]

[color=red] Formato : Flac [/color]
Programma usato [Eac]

[CODE]
Exact Audio Copy V0.99 prebeta 3 from 28. July 2007

EAC extraction logfile from 5. June 2008, 21:34

Arabica / Volume 1 - A North African Voyage Into Sound

Used drive : _NEC DVD_RW ND-3550A Adapter: 5 ID: 0

Read mode : Secure
Utilize accurate stream : Yes
Defeat audio cache : Yes
Make use of C2 pointers : No

Read offset correction : 48
Overread into Lead-In and Lead-Out : No
Fill up missing offset samples with silence : Yes
Delete leading and trailing silent blocks : No
Null samples used in CRC calculations : No
Used interface : Installed external ASPI interface

Used output format : User Defined Encoder
Selected bitrate : 768 kBit/s
Quality : High
Add ID3 tag : No
Command line compressor : C:\\Programmi\\Exact Audio Copy\\FLAC\\FLAC.EXE
Additional command line options : -6 -V -T \"ARTIST=%a\" -T \"TITLE=%t\" -T \"ALBUM=%g\" -T \"DATE=%y\" -T \"TRACKNUMBER=%n\" -T \"GENRE=%m\" -T \"COMMENT=%e\" %s -o %d


TOC of the extracted CD

Track | Start | Length | Start sector | End sector
---------------------------------------------------------
1 | 0:00.00 | 6:11.13 | 0 | 27837
2 | 6:11.13 | 5:26.08 | 27838 | 52295
3 | 11:37.21 | 5:03.73 | 52296 | 75093
4 | 16:41.19 | 4:56.74 | 75094 | 97367
5 | 21:38.18 | 4:32.11 | 97368 | 117778
6 | 26:10.29 | 6:21.19 | 117779 | 146372
7 | 32:31.48 | 4:39.52 | 146373 | 167349
8 | 37:11.25 | 5:41.04 | 167350 | 192928
9 | 42:52.29 | 5:07.58 | 192929 | 216011
10 | 48:00.12 | 6:07.41 | 216012 | 243577
11 | 54:07.53 | 5:52.45 | 243578 | 270022
12 | 60:00.23 | 5:05.13 | 270023 | 292910
13 | 65:05.36 | 4:17.30 | 292911 | 312215
14 | 69:22.66 | 6:49.07 | 312216 | 342897


Range status and errors

Selected range

Filename D:\\Documents and Settings\\salvo.SN116508160310\\Documenti\\Arabica - Volume 1 - A North African Voyage Into Sound.wav


Peak level 98.8 %
Range quality 99.8 %
Test CRC 148B60AA
Copy CRC 148B60AA
Copy finished

There were errors


AccurateRip summary

Track 1 accurately ripped (confidence 3) [193B50FC]
Track 2 accurately ripped (confidence 3) [44AE0DAF]
Track 3 accurately ripped (confidence 3) [3363367E]
Track 4 accurately ripped (confidence 3) [9D05D2B2]
Track 5 accurately ripped (confidence 3) [BA994312]
Track 6 accurately ripped (confidence 3) [C291860D]
Track 7 accurately ripped (confidence 3) [8135D3C7]
Track 8 accurately ripped (confidence 3) [49FDCDE9]
Track 9 accurately ripped (confidence 3) [F9E08459]
Track 10 accurately ripped (confidence 3) [D16CFC55]
Track 11 accurately ripped (confidence 3) [0EC5F4EB]
Track 12 accurately ripped (confidence 3) [9D6F26C3]
Track 13 accurately ripped (confidence 3) [A9E936E1]
Track 14 accurately ripped (confidence 3) [361BE556]

14 track(s) accurately ripped

Some tracks could not be verified as accurate

End of status report

[/CODE]
by ramasutra

related torrents

Torrent name

health leech seeds Size
 

comments (0)

Main Menu