Action

GLADIATOR TR EN DvDRip AC3 XviD Line

  • Download 5x Faster
  • Download torrent
  • Direct Download
  • Rate this torrent +  |  -
GLADIATOR TR EN DvDRip AC3 XviD Line

Anonymous and Free Direct Download


Torrent info

Name:GLADIATOR TR EN DvDRip AC3 XviD Line

Total Size: 1.36 GB

Magnet: Magnet Link

Seeds: 0

Leechers: 0

Stream: Watch Online @ Movie4u

Last Updated: 2011-03-26 18:30:05 (Update Now)

Torrent added: 2008-07-24 06:35:23



VPN For Torrents

Torrent Files List


GLADIATOR TR-EN DvDRip.AC3.XviD-Line.part01.rar (Size: 1.36 GB) (Files: 15)

 GLADIATOR TR-EN DvDRip.AC3.XviD-Line.part01.rar

95.78 MB

 GLADIATOR TR-EN DvDRip.AC3.XviD-Line.part02.rar

95.78 MB

 GLADIATOR TR-EN DvDRip.AC3.XviD-Line.part03.rar

95.78 MB

 GLADIATOR TR-EN DvDRip.AC3.XviD-Line.part04.rar

95.78 MB

 GLADIATOR TR-EN DvDRip.AC3.XviD-Line.part05.rar

95.78 MB

 GLADIATOR TR-EN DvDRip.AC3.XviD-Line.part06.rar

95.78 MB

 GLADIATOR TR-EN DvDRip.AC3.XviD-Line.part07.rar

95.78 MB

 GLADIATOR TR-EN DvDRip.AC3.XviD-Line.part08.rar

95.78 MB

 GLADIATOR TR-EN DvDRip.AC3.XviD-Line.part09.rar

95.78 MB

 GLADIATOR TR-EN DvDRip.AC3.XviD-Line.part10.rar

95.78 MB

 GLADIATOR TR-EN DvDRip.AC3.XviD-Line.part11.rar

95.78 MB

 GLADIATOR TR-EN DvDRip.AC3.XviD-Line.part12.rar

95.78 MB

 GLADIATOR TR-EN DvDRip.AC3.XviD-Line.part13.rar

95.78 MB

 GLADIATOR TR-EN DvDRip.AC3.XviD-Line.part14.rar

95.78 MB

 GLADIATOR TR-EN DvDRip.AC3.XviD-Line.part15.rar

48.88 MB
 

Announce URL: http://phantombitz.com/announce.php?passkey=a64e29b67a7778730172d97644425632

Torrent description

LINE 8-)

Ripper :sykdL
Format : AVI
Format/Info : Audio Video Interleave
File size : 1.37 GiB
Duration : 2h 28mn
Overall bit rate : 1320 Kbps
Writing application : VirtualDubMod 1.5.4.1 (build 2178/release)
Writing library : VirtualDubMod build 2178/release
IAS1 : Turkish
IAS2 : English

Video
Format : MPEG-4 Visual
Format profile : Streaming [email protected]
Format settings, BVOP : Yes
Format settings, QPel : No
Format settings, GMC : No warppoints
Format settings, Matrix : Custom
Codec ID : XVID
Codec ID/Hint : XviD
Duration : 2h 28mn
Bit rate : 479 Kbps
Width : 560 pixels
Height : 240 pixels
Display aspect ratio : 2.35
Frame rate : 25.000 fps
Resolution : 8 bits
Colorimetry : 4:2:0
Scan type : Progressive
Bits/(Pixel*Frame) : 0.143
Stream size : 509 MiB (36%)
Writing library : XviD 1.2.0.dev47 (UTC 2006-11-01)

Audio #1
Format : AC-3
Format/Info : Audio Coding 3
Codec ID : 2000
Duration : 2h 28mn
Bit rate mode : Constant
Bit rate : 448 Kbps
Channel(s) : 2 channels
Channel positions : L R
Sampling rate : 48.0 KHz
Stream size : 476 MiB (34%)
Alignment : Aligned on interleaves
Interleave, duration : 96 ms (2.40 video frames)
Interleave, preload duration : 96 ms

Audio #2
Format : AC-3
Format/Info : Audio Coding 3
Codec ID : 2000
Duration : 2h 28mn
Bit rate mode : Constant
Bit rate : 384 Kbps
Channel(s) : 6 channels
Channel positions : Front: L C R, Rear: L R, LFE
Sampling rate : 48.0 KHz
Stream size : 408 MiB (29%)
Alignment : Aligned on interleaves
Interleave, duration : 96 ms (2.40 video frames)
Interleave, preload duration : 96 ms

related torrents

Torrent name

health leech seeds Size
 


comments (0)

Main Menu