Action

Speed Racer (2008) 1337x By {Noir}

  • Download 5x Faster
  • Download torrent
  • Direct Download
  • Rate this torrent +  |  -
Speed Racer (2008) 1337x By {Noir}

Free and Direct Download with Usenet 300GB+ free


Torrent info

Name:Speed Racer (2008) 1337x By {Noir}

Total Size: 745.19 MB

Magnet: Magnet Link

Seeds: 0

Leechers: 0

Stream: Watch Online @ Movie4u

Last Updated: 2011-11-23 19:27:13 (Update Now)

Torrent added: 2008-07-24 01:12:38




Torrent Files List


1337x.Org.txt (Size: 745.19 MB) (Files: 3)

 1337x.Org.txt

0.03 KB

 Noir.nfo

4.86 KB

 Speed Racer (2008) [1337x] By {Noir}.avi

745.18 MB
 

Announce URL:

Torrent description

Speed Racer (2008) 1337x By {Noir} preview 0

Screenshots

Speed Racer (2008) 1337x By {Noir} preview 1

Speed Racer (2008) 1337x By {Noir} preview 2

Speed Racer (2008) 1337x By {Noir} preview 3

Speed Racer (2008) 1337x By {Noir} preview 4

_____________________________________________________________________________
▓▓▓▓▓▓
▓█████▓ ▓▓▓▓
▓██████▓ ▓▓███▓
▓▓██████▓ ▓████▓▓▓▓▓▓
▓██████▓ ▓██▒█▓▓███▓▓ ▓▓▓▓▓▓▓▓▓▓▓▓▓
▓██▒████▓ ▓██▒█▓██████▓▓███▓███▓███▓▓
▓██▒▒████▓ ▓██▒███▒▒▒▒██▓████████████▓
▓██▒▒▒▒███▓ ▓██▒██▒▒▒▒▒▒███▒▒▒██▒█▒▒▒██▓▓
▓██▒▒██▒▒██▓▓██▒██▒▒█▒▒▒▒███████▒▒▒▒▒▒██▓
▓██▒▒███▒▒██▓██▒██▒█▓█▒▒▒██▒▒▒██▒▒██▒▒▒█▓
▓██▒▒████▒▒████▒██▒█▓█▒▒▒██▒▒▒██▒▒███▒██▓
▓██▒▒█▓███▒▒███▒██▒▒█▒▒▒▒██▒▒▒██▒▒██████▓
▓██▒▒█▓▓███▒▒██▒██▒▒▒▒▒▒▒██▒▒▒██▒▒██▓███▓
▓▓██▒▒█▓ ▓███▒▒█▒██▒▒▒▒▒▒▒███████▒▒██▓▓▓▓▓
▓▓███▒▒█▓ ▓███▒▒▒███▒▒▒▒▒██▓▓▓▓██▒▒██▓
▓████▒▒█▓ ▓███▒▒█████████▓▓ ▓██▒▒██▓
▓████▒▒█▓ ▓███▒█▓██████▓▓▓ ▓██████▓
▓███████▓ ▓▓████▓▓▓▓▓▓▓▓ ▓▓▓▓▓▓▓▓
▓▓▓▓▓▓▓▓▓ ▓▓▓▓▓
_____________________________________________________________________________



*******************************************************************************
Speed Racer (2008)
*******************************************************************************

-------------------------------------------------------------------------------
General Information
-------------------------------------------------------------------------------
Type : Movie
Format : AVI
Format/Info : Audio Video Interleave
File size : 745 MiB
Duration : 2h 1mn
Source : Dvd R5
Genre : Action | Family | Sport
IMDB Link : http://www.imdb.com/title/tt0811080/
Rating : 6.6/10

Video
Format : MPEG-4 Visual
Format settings, BVOP : Yes
Format settings, QPel : No
Format settings, GMC : No warppoints
Format settings, Matrix : Default
Muxing mode : Packet Bitstream
Codec ID : DX50
Codec ID/Hint : DivX 5
Duration : 2h 1mn
Bit rate : 720 Kbps
Width : 608 pixels
Height : 240 pixels
Display aspect ratio : 2.533
Frame rate : 23.976 fps
Resolution : 8 bits
Colorimetry : 4:2:0
Scan type : Progressive
Bits/(Pixel*Frame) : 0.206
Stream size : 626 MiB (84%)

Audio
Format : MPEG Audio
Format version : Version 1
Format profile : Layer 3
Codec ID : 55
Codec ID/Hint : MP3
Duration : 2h 1mn
Bit rate mode : Constant
Bit rate : 128 Kbps
Channel(s) : 2 channels
Sampling rate : 48.0 KHz
Resolution : 16 bits
Stream size : 111 MiB (15%)
Alignment : Aligned on interleaves
Interleave, duration : 42 ms (1.00 video frame)
Interleave, preload duration : 504 ms
-------------------------------------------------------------------------------
Description
-------------------------------------------------------------------------------
The story begins with Speed Racer who is a young man with natural racing
instincts whose goal is to win The Crucible, a cross-country car racing
rally that took the life of his older brother, Rex Racer. Speed is loyal
to the family business, run by his parents Pops and Mom. Pops designed
Speed\'s car, the Mach 5. The owner of Royalton Industries makes Speed
a lucrative offer, Speed rejects the offer, angering the owner. Speed
also uncovers a secret that top corporate interests, including Royalton,
are fixing races and cheating to gain profit. With the offer to Speed
denied, Royalton wants to ensure that Speed will not win races. Speed
finds support from his parents and his girlfriend Trixie and enters The
Crucible in a partnership with his one-time rival, Racer X, seeking to
rescue his family\'s business and the racing sport itself.
-------------------------------------------------------------------------------
Post Information
-------------------------------------------------------------------------------
Posted by............: Noir
Posted on............: 7/24/2008

Speed Racer (2008) 1337x By {Noir} preview 5

Speed Racer (2008) 1337x By {Noir} preview 6

Speed Racer (2008) 1337x By {Noir} preview 7

related torrents

Torrent name

health leech seeds Size
 

comments (0)

Main Menu