Other

[SpBoo] Deep Fox Volume 01 torrent

  • Download 5x Faster
  • Download torrent
  • Direct Download
  • Rate this torrent +  |  -
[SpBoo] Deep Fox Volume 01 torrent

Download FREE And Anonymously


Torrent info

Name:[SpBoo] Deep Fox Volume 01 torrent

Total Size: 69.40 MB

Magnet: Magnet Link

Seeds: 0

Leechers: 0

Stream: Watch Full Movie @ Movie4u

Last Updated: 2015-09-10 06:17:45 (Update Now)

Torrent added: 2009-08-23 11:38:45



VPN For Torrents

Torrent Files List


Covers (Size: 69.40 MB) (Files: 5)

 Covers

  Deep Fox Vol. 01 Inlay Original.jpg

272.73 KB

  Deep Fox Vol. 01 Front Original.jpg

96.13 KB

  Deep Fox Vol. 01 Back Original.jpg

90.71 KB

 Deep Fox Vol. 01.mp3

68.95 MB

 Deep Fox Vol. 01.cue

0.79 KB
 

tracker

leech seeds
 

Torrent description

Show/Hide

PERFORMER "DJ Deep"
TITLE "Deep Fox 01"
FILE "Deep Fox Vol. 01.mp3" MP3
TRACK 01 AUDIO
TITLE "Deep Fox Mix Vol. 1"
PERFORMER "Various Artists"
INDEX 01 00:00:00
TRACK 02 AUDIO
TITLE "Disco Medley"
PERFORMER "Second Chance"
INDEX 01 36:17:25
TRACK 03 AUDIO
TITLE "Stranger In My Life (Maxi-Mix)"
PERFORMER "Grant Miller"
INDEX 01 40:50:40
TRACK 04 AUDIO
TITLE "Megamix"
PERFORMER "Rick Astley"
INDEX 01 45:08:60
TRACK 05 AUDIO
TITLE "Fly With Me To Wonderland (Maxi-Mix)"
PERFORMER "Rocky M."
INDEX 01 55:19:20
TRACK 06 AUDIO
TITLE "Megamix"
PERFORMER "Modern Talking"
INDEX 01 61:13:42
TRACK 07 AUDIO
TITLE "Happy Birthday (Maxi-Mix)"
PERFORMER "Stevie Wonder"
INDEX 01 69:27:10

related torrents

Torrent name

health leech seeds Size

Deep Fox Volume 01

0 0 69.42 MB 0

Deep Fox Volume 06

0 0 66.39 MB 0
 


comments (0)

Main Menu

 

script data-cfasync="false" src="//d2ghscazvn398x.cloudfront.net/?cshgd=690275">