Sports related

AFL Australian Football Legue 2009 Round 21 Adelaide Crows VS West Coast Eagles 22 08 2009

  • Download 5x Faster
  • Download torrent
  • Direct Download
  • Rate this torrent +  |  -

Torrent info

Name:AFL Australian Football Legue 2009 Round 21 Adelaide Crows VS West Coast Eagles 22 08 2009

Total Size: 1.66 GB

Magnet: Magnet Link

Seeds: 0

Leechers: 0

Stream: Watch Online @ Movie4u

Last Updated: 2016-04-08 07:43:15 (Update Now)

Torrent added: 2009-08-23 10:34:52





Torrent Files List


02.jpg (Size: 1.66 GB) (Files: 5)

 02.jpg

27.00 KB

 01.jpg

30.24 KB

 03.jpg

45.23 KB

 poster.png

289.25 KB

 Crows vs WCE.avi

1.66 GB
 

tracker

leech seeds
 

Torrent description

AFL   Australian Football Legue 2009   Round 21   Adelaide Crows VS West Coast Eagles   22 08 2009 preview 0



General
Complete name : Crows vs WCE.avi
Format : AVI
Format/Info : Audio Video Interleave
File size : 1.66 GiB
Duration : 1h 50mn
Overall bit rate : 2 152 Kbps
Writing application : VirtualDubMod 1.5.4.1 (build 2178/release)
Writing library : VirtualDubMod build 2178/release

Video
ID : 0
Format : MPEG-4 Visual
Format profile : Streaming [email protected]
Format settings, BVOP : Yes
Format settings, QPel : No
Format settings, GMC : No warppoints
Format settings, Matrix : Default (H.263)
Muxing mode : Packed bitstream
Codec ID : XVID
Codec ID/Hint : XviD
Duration : 1h 50mn
Bit rate : 1 953 Kbps
Width : 720 pixels
Height : 416 pixels
Display aspect ratio : 16/9
Frame rate : 25.000 fps
Resolution : 24 bits
Colorimetry : 4:2:0
Scan type : Progressive
Bits/(Pixel*Frame) : 0.261
Stream size : 1.51 GiB (91%)
Writing library : XviD 1.2.1 (UTC 2008-12-04)

Audio
ID : 1
Format : MPEG Audio
Format version : Version 1
Format profile : Layer 3
Codec ID : 55
Codec ID/Hint : MP3
Duration : 1h 50mn
Bit rate mode : Constant
Bit rate : 192 Kbps
Channel(s) : 2 channels
Sampling rate : 44.1 KHz
Resolution : 16 bits
Stream size : 152 MiB (9%)
Alignment : Split accross interleaves
Interleave, duration : 80 ms (2.00 video frames)
Interleave, preload duration : 500 ms



Screenshots:

AFL   Australian Football Legue 2009   Round 21   Adelaide Crows VS West Coast Eagles   22 08 2009 preview 1

AFL   Australian Football Legue 2009   Round 21   Adelaide Crows VS West Coast Eagles   22 08 2009 preview 2

related torrents

Torrent name

health leech seeds Size
 

comments (0)

Main Menu