Electronic

Tantra Lounge Vol 2 Flac+Cuetntvillage scambioetico orgby Ramasutra

  • Download 5x Faster
  • Download torrent
  • Direct Download
  • Rate this torrent +  |  -

Torrent info

Name:Tantra Lounge Vol 2 Flac+Cuetntvillage scambioetico orgby Ramasutra

Total Size: 448.96 MB

Magnet: Magnet Link

Seeds: 1

Leechers: 36

Stream: Watch Online @ Movie4u

Last Updated: 2010-08-02 20:10:56 (Update Now)

Torrent added: 2008-07-23 15:45:09



VPN For Torrents

Torrent Files List


Image0001.JPG (Size: 448.96 MB) (Files: 5)

 Image0001.JPG

375.39 KB

 Image0002.JPG

357.28 KB

 Tantra Lounge, vol. 2.log

3.55 KB

 Various - Tantra Lounge, vol. 2.cue

2.10 KB

 Various - Tantra Lounge, vol. 2.flac

448.24 MB
 

Announce URL: http://tracker.tntvillage.scambioetico.org:2710/announce

Torrent description

[SIZE=16][color=#e1771e]Tantra Lounge Vol.2 [/SIZE][/color]

[color=purple] by Ramasutra [/color]

[color=green]:::->Cover<-:::[/color]
Tantra Lounge Vol 2 Flac+Cuetntvillage scambioetico orgby Ramasutra preview 0Tantra Lounge Vol 2 Flac+Cuetntvillage scambioetico orgby Ramasutra preview 1

[color=green]:::->Dati Album<-:::[/color]


Autore:aa/vv
Titolo:Tantra Lounge Vol.2
Anno:2004
Genere: Electronic /Ethnic Lounge/Downtempo
Etichetta:fonte cd /originale /cdda
Cover : Incluse

[color=green]:::->Tracklist<-:::[/color]

1. Punjab De Rang (Colours Of Punjab) - Dhol Foundation
2. This Realm - Natacha Atlas
3. Jaada (Nickodemus & Osiris Remix) - Ustad Sultan Khan
4. Analog Mood Swings - Karsh Kale
5. Jaipur Dream - Ganeesh Collective
6. Calcutta - Sunil
7. Shashkin (Hefner Remix) - Omar Faruk Tekbilek
8. Bhopal - Kinema
9. Funky Nawari - Jef Stott Featuring Reda Darwish
10. Indra - Thievery Corporation
11. Jhoole Jhoole Lal (Tabla Mix) - Nusrat Fateh Ali Khan
12. Returning Home - El Bihalee
13. Om Nama Shivaya - Donna De Lory
14. Drifting Clouds - Fateh
15. You Are We Am I (Red Mix) - TJ Rehmi
16. Eastern Dawn - Mars Lasar
17. Matter - Govinda



[color=green]:::->Recensione<-:::[/color]
Di questa recensione si trova ben poco, vi dico solo che un cd import direttamente dalla America ,il tantra lounge e' un noto locale di San Francisco....con i suoi generi molto unici e particolari...somigliante tanto al Buddha Bar...questo e il volume 2.

tratto da me...

[color=green]:::->Dati Tecnici<-:::[/color]

[color=red] Formato : Flac [/color]
Programma usato [Eac]

[CODE]
Exact Audio Copy V0.99 prebeta 3 from 28. July 2007

EAC extraction logfile from 19. May 2008, 19:32

Various / Tantra Lounge, vol. 2

Used drive : _NEC DVD_RW ND-3550A Adapter: 5 ID: 0

Read mode : Secure
Utilize accurate stream : Yes
Defeat audio cache : Yes
Make use of C2 pointers : No

Read offset correction : 48
Overread into Lead-In and Lead-Out : No
Fill up missing offset samples with silence : Yes
Delete leading and trailing silent blocks : No
Null samples used in CRC calculations : No
Used interface : Installed external ASPI interface

Used output format : User Defined Encoder
Selected bitrate : 768 kBit/s
Quality : High
Add ID3 tag : No
Command line compressor : C:\Programmi\Exact Audio Copy\FLAC\FLAC.EXE
Additional command line options : -6 -V -T "ARTIST=%a" -T "TITLE=%t" -T "ALBUM=%g" -T "DATE=%y" -T "TRACKNUMBER=%n" -T "GENRE=%m" -T "COMMENT=%e" %s -o %d


TOC of the extracted CD

Track | Start | Length | Start sector | End sector
---------------------------------------------------------
1 | 0:00.00 | 5:34.06 | 0 | 25055
2 | 5:34.06 | 3:41.74 | 25056 | 41704
3 | 9:16.05 | 5:00.68 | 41705 | 64272
4 | 14:16.73 | 6:01.30 | 64273 | 91377
5 | 20:18.28 | 3:25.49 | 91378 | 106801
6 | 23:44.02 | 3:32.20 | 106802 | 122721
7 | 27:16.22 | 3:45.06 | 122722 | 139602
8 | 31:01.28 | 4:40.13 | 139603 | 160615
9 | 35:41.41 | 5:10.66 | 160616 | 183931
10 | 40:52.32 | 2:49.07 | 183932 | 196613
11 | 43:41.39 | 6:21.27 | 196614 | 225215
12 | 50:02.66 | 4:20.73 | 225216 | 244788
13 | 54:23.64 | 6:04.51 | 244789 | 272139
14 | 60:28.40 | 4:49.12 | 272140 | 293826
15 | 65:17.52 | 4:02.24 | 293827 | 312000
16 | 69:20.01 | 2:50.49 | 312001 | 324799
17 | 72:10.50 | 4:16.35 | 324800 | 344034


Range status and errors

Selected range

Filename D:\Documents and Settings\salvo.SN116508160310\Documenti\Various - Tantra Lounge, vol. 2.wav

Peak level 98.8 %
Range quality 99.9 %
Test CRC 8D347F9D
Copy CRC 8D347F9D
Copy OK

No errors occurred


AccurateRip summary

Track 1 accurately ripped (confidence 2) [421A2C10]
Track 2 accurately ripped (confidence 2) [60858945]
Track 3 accurately ripped (confidence 2) [9A4DD8E4]
Track 4 accurately ripped (confidence 2) [163874B7]
Track 5 accurately ripped (confidence 2) [5A16314C]
Track 6 accurately ripped (confidence 2) [7D4B7A15]
Track 7 accurately ripped (confidence 2) [4D0EF55A]
Track 8 accurately ripped (confidence 2) [1DE85140]
Track 9 accurately ripped (confidence 2) [6E9C7D03]
Track 10 accurately ripped (confidence 2) [738FC3DC]
Track 11 accurately ripped (confidence 2) [3E221985]
Track 12 accurately ripped (confidence 2) [58EBEE9A]
Track 13 accurately ripped (confidence 2) [DBDA934D]
Track 14 accurately ripped (confidence 2) [73DF4961]
Track 15 accurately ripped (confidence 2) [B77111B9]
Track 16 accurately ripped (confidence 2) [41DD9C1B]
Track 17 accurately ripped (confidence 2) [258A24BB]

All tracks accurately ripped

End of status report






[/CODE]

related torrents

Torrent name

health leech seeds Size
 


comments (0)

Main Menu