Other

James Blunt Chasing Time:][Concert Avi][Tracks Mp3 @ 320kbs][Hectorbusinspector][H33t]

  • Download 5x Faster
  • Download torrent
  • Direct Download
  • Rate this torrent +  |  -

Torrent info

Name:James Blunt Chasing Time:][Concert Avi][Tracks Mp3 @ 320kbs][Hectorbusinspector][H33t]

Total Size: 809.88 MB

Magnet: Magnet Link

Seeds: 9

Leechers: 4

Stream: Watch Online @ Movie4u

Last Updated: 0000-00-00 00:00:00 (Update Now)

Torrent added: 2009-08-23 10:09:16



VPN For Torrents

Torrent Files List


Tracks (Size: 809.88 MB) (Files: 19)

 Tracks

  05) James Blunt - So Long, Jimmy (live).mp3

12.42 MB

  06) James Blunt - Sugar Coated (live).mp3

8.82 MB

  07) James Blunt - You're Beautiful (live).mp3

8.33 MB

  08) James Blunt - Billy (live).mp3

8.66 MB

  09) James Blunt - Fall At Your Feet (live).mp3

6.20 MB

  10) James Blunt - Tears And Rain (live).mp3

9.82 MB

  11) James Blunt - No Bravery (live).mp3

8.27 MB

  12) James Blunt - Where Is My Mind_ (live).mp3

9.43 MB

  04) James Blunt - Goodbye My Lover (live).mp3

10.99 MB

  03) James Blunt - Cry (live).mp3

8.55 MB

  01) James Blunt - Wisemen (live).mp3

8.75 MB

  02) James Blunt - High (live).mp3

8.99 MB

 introduction to us, we are not pirates.txt

4.55 KB

 James Blunt!.txt

5.98 KB

 tracked_by_h33t_com.txt

0.02 KB

 Cover

  Front.jpg

264.39 KB

  Back.jpg

239.52 KB

  Disc.jpg

102.00 KB

 Concert @ the BBc

  James Blunt.avi

700.06 MB
 

Announce URL: http://www.h33t.com:3310/announce

Torrent description

the bedlam sessions

James Blunt has an intimate way of showing his raw emotion in his music.
On the DVD that is even more apparent than in his audio album.
Here is an artist that sings each song every bit as well live as he does recorded - a sign of real talent.

This DVD is a great watch if you are a fan of his music.
Since his music is so much about the emotion he expresses I loves the interviews where he discusses more about what went into each song and where his inspiration came from.
I'm still trying to figure out his music videos... the one for "You're Beautiful" was really striking yet simple - in line with his style - but the others are just plain weird! It's OK, though, just makes me think more intently about the songs when I hear them after seeing the things he finds important to portray in the videos.

I'm not one to really sit down and watch music on TV, but this DVD is an exception to me.
James Blunt puts his heart and soul into his singing so actually seeing him express that just adds to the beauty of it.
I can't wait til he comes back to the US for concerts! But, in the mean time, this will suffice.
______________________________________________________________________________________________________________________________________________
DVD Content
***********
1. Billy
2. High
3. Wisemen
4. Goodbye My Lover
5. Tears And Rain
6. Out Of My Mind
7. So Long, Jimmy
8. You're Beautiful
9. Cry
10. No Bravery
11. Where Is My Mind?
12. High, video
13. High, making of
14. Wisemen, video
15. Wisemen, making of
16. You're Beautiful
17. You're Beautiful, making of
18. High, video
19. High, making of
20. Goodbye My Lover
21. Goodbye My Lover, making of
22. Being Blunt
23. Interview
24. Photo Gallery
______________________________________________________________________________________________________________________________________________
Mp3 content
***********
01) James Blunt - Wisemen (live)
02) James Blunt - High (live)
03) James Blunt - Cry (live)
04) James Blunt - Goodbye My Lover (live)
05) James Blunt - So Long, Jimmy (live)
06) James Blunt - Sugar Coated (live)
07) James Blunt - You're Beautiful (live)
08) James Blunt - Billy (live)
09) James Blunt - Fall At Your Feet (live)
10) James Blunt - Tears And Rain (live)
11) James Blunt - No Bravery (live)
12) James Blunt - Where Is My Mind_ (live)
______________________________________________________________________________________________________________________________________________
General
Complete name : James Blunt][Concert Avi][Tracks Mp3 @ 320kbs][Hectorbusinspector][H33t]\Concert @ the BBc\James Blunt.avi
Format : AVI
Format/Info : Audio Video Interleave
File size : 700 MiB
Duration : 46mn 28s
Overall bit rate : 2 106 Kbps
Writing application : VirtualDubMod 1.5.4.1 (build 2178/release)
Writing library : VirtualDubMod build 2178/release

Video
Format : MPEG-4 Visual
Format profile : Streaming [email protected]
Format settings, BVOP : Yes
Format settings, QPel : No
Format settings, GMC : No warppoints
Format settings, Matrix : Custom
Codec ID : XVID
Codec ID/Hint : XviD
Duration : 46mn 28s
Bit rate : 1 870 Kbps
Width : 608 pixels
Height : 352 pixels
Display aspect ratio : 16/9
Frame rate : 29.970 fps
Resolution : 24 bits
Colorimetry : 4:2:0
Scan type : Progressive
Bits/(Pixel*Frame) : 0.292
Stream size : 622 MiB (89%)
Writing library : XviD 1.2.0.dev47 (UTC 2006-11-01)

Audio #1
Format : MPEG Audio
Format version : Version 1
Format profile : Layer 3
Codec ID : 55
Codec ID/Hint : MP3
Duration : 46mn 28s
Bit rate mode : Constant
Bit rate : 112 Kbps
Channel(s) : 2 channels
Sampling rate : 44.1 KHz
Resolution : 16 bits
Stream size : 37.2 MiB (5%)
Alignment : Split accross interleaves
Interleave, duration : 67 ms (2.00 video frames)
Interleave, preload duration : 500 ms
Writing library : LAME3.97
Encoding settings : -m j -V 4 -q 2 -lowpass 15.6 -b 112
Language : English

Audio #2
Format : MPEG Audio
Format version : Version 1
Format profile : Layer 3
Codec ID : 55
Codec ID/Hint : MP3
Duration : 46mn 28s
Bit rate mode : Constant
Bit rate : 112 Kbps
Channel(s) : 2 channels
Sampling rate : 44.1 KHz
Resolution : 16 bits
Stream size : 37.2 MiB (5%)
Alignment : Split accross interleaves
Interleave, duration : 67 ms (2.00 video frames)
Interleave, preload duration : 500 ms
Writing library : LAME3.97
Encoding settings : -m j -V 4 -q 2 -lowpass 15.6 -b 112
Language : English
______________________________________________________________________________________________________________________________

Avi Concert @ the BBc.
Art Info.
******
Tracks.
Mp3.
320kbs.
******
H33t.com

Tell a Friend.
*****************************************************************************************************************************

related torrents

Torrent name

health leech seeds Size
 


comments (0)

Main Menu