Other

Iva Bittova & Nederlands Blazers Ensemble 2002 avi

  • Download 5x Faster
  • Download torrent
  • Direct Download
  • Rate this torrent +  |  -
Iva Bittova & Nederlands Blazers Ensemble 2002 avi

Anonymous and Direct Download 300GB+ free


Torrent info

Name:Iva Bittova & Nederlands Blazers Ensemble 2002 avi

Total Size: 688.00 MB

Magnet: Magnet Link

Seeds: 0

Leechers: 0

Stream: Watch Online @ Movie4u

Last Updated: 2012-04-04 09:17:00 (Update Now)

Torrent added: 2009-08-23 10:09:16




Torrent Files List


iva bittova and nederlands blazers ensemble 2002.avi (Size: 688.00 MB) (Files: 1)

 iva bittova and nederlands blazers ensemble 2002.avi

688.00 MB
 

Announce URL:

Torrent description

tvrip

Video
Format : MPEG-4 Visual
Format settings, BVOP : Yes
Format settings, QPel : No
Format settings, GMC : No warppoints
Format settings, Matrix : Default
Muxing mode : Packed bitstream
Codec ID : DX50
Codec ID/Hint : DivX 5
Duration : 46mn 54s
Bit rate : 1 849 Kbps
Width : 720 pixels
Height : 576 pixels
Display aspect ratio : 5/4
Frame rate : 25.000 fps
Standard : PAL
Resolution : 24 bits
Colorimetry : 4:2:0
Scan type : Progressive
Bits/(Pixel*Frame) : 0.178
Stream size : 620 MiB (90%)
Title : Video
Writing library : DivX 6.2.5 (UTC 2006-06-16)

Audio
Format : MPEG Audio
Format version : Version 1
Format profile : Layer 3
Codec ID : 55
Codec ID/Hint : MP3
Duration : 46mn 54s
Bit rate mode : Constant
Bit rate : 192 Kbps
Channel(s) : 2 channels
Sampling rate : 48.0 KHz
Resolution : 16 bits
Stream size : 64.4 MiB (9%)
Alignment : Split accross interleaves
Interleave, duration : 40 ms (1.00 video frame)
Interleave, preload duration : 50 ms
Title : Audio

related torrents

Torrent name

health leech seeds Size
 


comments (0)

Main Menu