Other

Eric Bibb Live At The Basement DVDRip (AC 3 Audio)

  • Download 5x Faster
  • Download torrent
  • Direct Download
  • Rate this torrent +  |  -
Eric Bibb Live At The Basement DVDRip (AC 3 Audio)

Free and Direct Download with Usenet 300GB+ free


Torrent info

Name:Eric Bibb Live At The Basement DVDRip (AC 3 Audio)

Total Size: 720.25 MB

Magnet: Magnet Link

Seeds: 4

Leechers: 2

Stream: Watch Online @ Movie4u

Last Updated: 2010-12-06 15:07:27 (Update Now)

Torrent added: 2009-08-23 10:07:22




Torrent Files List


EBibb.LATB.avi (Size: 720.25 MB) (Files: 1)

 EBibb.LATB.avi

720.25 MB
 

Announce URL: http://tracker.thepiratebay.org/announce

Torrent description

Over the last 25 years the stage of Sydney's legendary 'Basement' night club has been graced by Jazz & Blues music's international elite.

The night Eric Bibb came to town was a pearler. Original tunes, beautifully crafted, a blend of heart, mind and humour which had the full house enthralled.

This beautiful recording will put you right there in the moment with Eric & Dave Bronze weaving the kind of spell only live music can.


Recorded live at the Basement Night Club, Sydney, Australia 2002.

Tracklisting:

1. Good Stuff,
2. Shingle By Shingle,
3. Needed Time,
4. Lonesome Valley,
5. Don't Ever Let Nobody Drag Your Spirit Down,
6. Sebastian's Tune,
7. Got To Do Better,
8. Panama Hat,
9. To Know You Is To Love You,
10. No More Cane On The Brazos,
11. Right On Time,
12. For You,
13. In My Father's House,
14. I Heard The Angels Singin'



Format : AVI
Format/Info : Audio Video Interleave
File size : 720 MiB
Duration : 1h 6mn
Overall bit rate : 1 517 Kbps
Writing application : VirtualDubMod 1.5.4.1 (build 2178/release)
Writing library : VirtualDubMod build 2178/release

Video
Format : MPEG-4 Visual
Format profile : Streaming [email protected]
Codec ID : XVID
Duration : 1h 6mn
Bit rate : 1 062 Kbps
Width : 464 pixels
Height : 352 pixels
Display aspect ratio : 4/3
Frame rate : 25.000 fps
Resolution : 24 bits
Colorimetry : 4:2:0
Scan type : Progressive
Bits/(Pixel*Frame) : 0.260
Stream size : 504 MiB (70%)
Writing library : XviD 1.1.0 (UTC 2005-11-22)

Audio
Format : AC-3
Format/Info : Audio Coding 3
Codec ID : 2000
Duration : 1h 6mn
Bit rate mode : Constant
Bit rate : 448 Kbps
Channel(s) : 6 channels
Channel positions : Front: L C R, Surround: L R, LFE
Sampling rate : 48.0 KHz
Stream size : 213 MiB (30%)
Alignment : Aligned on interleaves
Interleave, duration : 96 ms (2.40 video frames)
Interleave, preload duration : 96 ms


Please help your fellow pirates by seeding after download!

related torrents

Torrent name

health leech seeds Size
 

comments (0)

Main Menu