Other

Eagles Farewell 1 Tour[2005]DVDrip[Eng] Atlas47

  • Download 5x Faster
  • Download torrent
  • Direct Download
  • Rate this torrent +  |  -
Eagles Farewell 1 Tour[2005]DVDrip[Eng] Atlas47

Free and Direct Download with Usenet.nl 300GB+ free


Torrent info

Name:Eagles Farewell 1 Tour[2005]DVDrip[Eng] Atlas47

Total Size: 2.35 GB

Magnet: Magnet Link

Seeds: 22

Leechers: 14

Stream: Watch Online @ Movie4u

Last Updated: 2011-01-08 00:28:31 (Update Now)

Torrent added: 2009-08-23 10:07:07





Torrent Files List


Torrent_downloaded_from_Demonoid.com.txt (Size: 2.35 GB) (Files: 6)

 Torrent_downloaded_from_Demonoid.com.txt

0.05 KB

 Disc 2

  Extras.avi

100.05 MB

  Eagles - Farewell Tour Disc 2.avi

900.36 MB

 Eagles - Farewell 1 Tour.nfo

10.70 KB

 Disc 1

  Eagles - Farewell Tour Disc1.avi

1.37 GB

 Covers

  Eagles - Farewell Tour.jpg

1.43 MB
 

Announce URL: http://tracker.thepiratebay.org:80/announce

Torrent description


±±±±±±±±±±±±±±±±±±±±±±±±±±±±±±±±±±±±±±±±±±±±±±±±±±±±±±±±±±±±±±±±±±±±±±±±±±±±±±±±
± ±
± INFO: ±
± ±
± General ±
± Complete name : Eagles - Farewell 1 Tour Disc1 / Disc 2 ±
± Format : AVI ±
± Format/Info : Audio Video Interleave ±
± File size : 1.37 GiB / 900 MiB ±
± Duration : 1h 39mn / 1h 5mn ±
± Overall bit rate : 1 975 Kbps / 1 929 Kbps ±
± Writing application : VirtualDubMod 1.5.4.1 (build 2178/release)±
± Writing library : VirtualDubMod build 2178/release ±
± ±
± Video ±
± Format : MPEG-4 Visual ±
± Format settings, BVOP : Yes ±
± Format settings, QPel : No ±
± Format settings, GMC : No warppoints ±
± Format settings, Matrix : Default ±
± Codec ID : DX50 ±
± Codec ID/Hint : DivX 5 ±
± Duration : 1h 39mn / 1h 5mn ±
± Bit rate : 1 648 Kbps / 1 602 Kbps ±
± Width : 640 pixels / 608 pixels ±
± Height : 368 pixels / 352 pixels ±
± Display aspect ratio : 16/9 ±
± Frame rate : 25.000 fps ±
± Resolution : 24 bits ±
± Colorimetry : 4:2:0 ±
± Scan type : Progressive ±
± Bits/(Pixel*Frame) : 0.280 / 0.299 ±
± Stream size : 1.14 GiB (83%) / 748 MiB (83%) ±
± Writing library : DivX 2816 ±
± ±
± Audio ±
± Format : MPEG Audio ±
± Format version : Version 1 ±
± Format profile : Layer 3 ±
± Codec ID : 55 ±
± Codec ID/Hint : MP3 ±
± Duration : 1h 39mn / 1h 5mn ±
± Bit rate mode : Constant ±
± Bit rate : 320 Kbps ±
± Channel(s) : 2 channels ±
± Sampling rate : 48.0 KHz ±
± Resolution : 16 bits ±
± Stream size : 227 MiB (16%) / 149 MiB (17%) ±
± Alignment : Aligned on interleaves ±
± Interleave, duration : 80 ms (2.00 video frame) ±
± Interleave, preload duration : 504 ms ±
± Writing library : LAME3.98r ±
± Encoding settings : CBR ±
± Language : English ±
± ±
± IMDb Rating : 8.9/10 ±
± IMDb URL : http://www.imdb.com/title/tt0476452/ ±
± ±
±°°°°°°°°°°°°°°°°°°°°°°°°°°°°°°°°°°°°°°°°°°°°°°°°°°°°°°°°°°°°°°°°°°°°°°°°°°°°°°±
± ±
± Track Listing ±
± ±
± Disc 1 Disc 2 ±
± ±
± The Long Run Life's Been Good ±
± New Kid In Town Dirty Laundry ±
± Wasted Time Funk #49 ±
± Peaceful Easy Feeling Heartache Tonight ±
± I Can't Tell You Why Life In The Fast Lane ±
± One Of These Nights Hotel California ±
± One Day At A Time Rocky Mountain Way ±
± Lyin' Eyes All She Wants To Do Is Dance ±
± The Boys Of Summer Take It Easy ±
± In The City Desperado ±
± Already Gone ±
± Silent Spring (Intro) ±
± Tequila Sunrise ±
± Love Will Keep Us Alive ±
± No More Cloudy Days ±
± Hole In The World ±
± Take It To The Limit ±
± You Belong To The City ±
± Walk Away ±
± Sunset Grill ±
± ±
±°°°°°°°°°°°°°°°°°°°°°°°°°°°°°°°°°°°°°°°°°°°°°°°°°°°°°°°°°°°°°°°°°°°°°°°°°°°°°°±

related torrents

Torrent name

health leech seeds Size

Eagles Farewell Tour

0 0 1.13 GB 0
 

comments (0)

Main Menu