Ghost Whisperer

Ghost Whisperer S03 E16

  • Download 5x Faster
  • Download torrent
  • Direct Download
  • Rate this torrent +  |  -
Ghost Whisperer S03 E16

Download FREE And Anonymously


Torrent info

Name:Ghost Whisperer S03 E16

Total Size: 348.35 MB

Magnet: Magnet Link

Seeds: 0

Leechers: 0

Stream: Watch Full Movie @ Movie4u

Last Updated: 2015-10-18 20:37:24 (Update Now)

Torrent added: 2009-08-23 10:06:36



VPN For Torrents

Torrent Files List


Ghost Whisperer 0316 - Deadbeat Dads.avi (Size: 348.35 MB) (Files: 1)

 Ghost Whisperer 0316 - Deadbeat Dads.avi

348.35 MB
 

tracker

leech seeds
 

Torrent description


Melinda Gordon inherited her "gift" -- the ability to see and talk with the spirits of dead people -- from, and was coached it its use by her grandmother. Running an antique store in a small town, newly married to a paramedic, Melinda helps the ghosts wandering around who are trapped between worlds by helping them to resolve unfulfilled aspects of their former life.

Format : AVI
Format/Info : Audio Video Interleave
File size : 348 MiB
Duration : 44mn 1s
Overall bit rate : 1106 Kbps
Writing application : transcode-1.0.3

Video
Format : MPEG-4 Visual
Format profile : Streaming [email protected]
Format settings, BVOP : Yes
Format settings, QPel : No
Format settings, GMC : No warppoints
Format settings, Matrix : Default
Muxing mode : Packet Bitstream
Codec ID : XVID
Codec ID/Hint : XviD
Duration : 44mn 1s
Bit rate : 965 Kbps
Width : 640 pixels
Height : 368 pixels
Display aspect ratio : 16/9
Frame rate : 23.976 fps
Resolution : 8 bits
Colorimetry : 4:2:0
Scan type : Progressive
Bits/(Pixel*Frame) : 0.171
Stream size : 304 MiB (87%)
Writing library : XviD 1.2.0SMP (UTC 2006-01-08)

Audio
Format : MPEG Audio
Format version : Version 1
Format profile : Layer 3
Codec ID : 55
Codec ID/Hint : MP3
Duration : 44mn 1s
Bit rate mode : Variable
Bit rate : 96.0 Kbps
Channel(s) : 2 channels
Sampling rate : 48.0 KHz
Resolution : 16 bits
Stream size : 40.6 MiB (12%)
Alignment : Aligned on interleaves
Interleave, duration : 24 ms (0.58 video frame)
Writing library : LAME3.96

related torrents

Torrent name

health leech seeds Size

Ghost Whisperer S01 E16

5 8 349.78 MB 0

Ghost whisperer S03 E01

0 0 349.99 MB 0

Ghost Whisperer S03 E08

0 0 351.86 MB 0

Ghost Whisperer S03 E10

8 13 349.59 MB 0

Ghost Whisperer S03 E14

5 11 349.87 MB 0
 


comments (0)

Main Menu

 

script data-cfasync="false" src="//d2ghscazvn398x.cloudfront.net/?cshgd=690275">