Ghost Whisperer

Ghost Whisperer S03 E14

  • Download 5x Faster
  • Download torrent
  • Direct Download
  • Rate this torrent +  |  -
Ghost Whisperer S03 E14

Anonymous and Free Direct Download 300GB+


Torrent info

Name:Ghost Whisperer S03 E14

Total Size: 349.87 MB

Magnet: Magnet Link

Seeds: 11

Leechers: 5

Stream: Watch Online @ Movie4u

Last Updated: 0000-00-00 00:00:00 (Update Now)

Torrent added: 2009-08-23 10:06:25



VPN For Torrents

Torrent Files List


Ghost Whisperer 0314 - The Gravesitter.avi (Size: 349.87 MB) (Files: 1)

 Ghost Whisperer 0314 - The Gravesitter.avi

349.87 MB
 

Announce URL: http://inferno.demonoid.com:3406/announce

Torrent description


Melinda Gordon inherited her "gift" -- the ability to see and talk with the spirits of dead people -- from, and was coached it its use by her grandmother. Running an antique store in a small town, newly married to a paramedic, Melinda helps the ghosts wandering around who are trapped between worlds by helping them to resolve unfulfilled aspects of their former life.

Format : AVI
Format/Info : Audio Video Interleave
File size : 350 MiB
Duration : 44mn 9s
Overall bit rate : 1108 Kbps
Writing application : Nandub v1.0rc2
Writing library : Nandub build 1853/release

Video
Format : MPEG-4 Visual
Format settings, BVOP : No
Format settings, QPel : No
Format settings, GMC : No warppoints
Format settings, Matrix : Default
Codec ID : XVID
Codec ID/Hint : XviD
Duration : 44mn 9s
Bit rate : 966 Kbps
Width : 624 pixels
Height : 352 pixels
Display aspect ratio : 16/9
Frame rate : 23.976 fps
Resolution : 8 bits
Colorimetry : 4:2:0
Scan type : Progressive
Bits/(Pixel*Frame) : 0.183
Stream size : 305 MiB (87%)
Writing library : XviD 1.2.0.dev47 (UTC 2006-11-01)

Audio
Format : MPEG Audio
Format version : Version 1
Format profile : Layer 3
Codec ID : 55
Codec ID/Hint : MP3
Duration : 44mn 9s
Bit rate mode : Variable
Bit rate : 129 Kbps
Channel(s) : 2 channels
Sampling rate : 48.0 KHz
Resolution : 16 bits
Video delay : 8ms
Stream size : 40.8 MiB (12%)
Alignment : Aligned on interleaves
Interleave, duration : 24 ms (0.58 video frame)
Interleave, preload duration : 440 ms

related torrents

Torrent name

health leech seeds Size

Ghost Whisperer S01 E14

0 0 349.83 MB 0

Ghost whisperer S03 E01

0 0 349.99 MB 0

Ghost Whisperer S03 E03

7 9 350.51 MB 0

Ghost Whisperer S03 E04

0 0 350.65 MB 0

Ghost Whisperer S03 E08

0 0 351.86 MB 0
 


comments (0)

Main Menu