Ghost Whisperer

Ghost Whisperer S03 E13

  • Download 5x Faster
  • Download torrent
  • Direct Download
  • Rate this torrent +  |  -
Ghost Whisperer S03 E13

Free and Direct Download with Usenet.nl 300GB+ free


Torrent info

Name:Ghost Whisperer S03 E13

Total Size: 350.68 MB

Magnet: Magnet Link

Seeds: 10

Leechers: 6

Stream: Watch Online @ Movie4u

Last Updated: 0000-00-00 00:00:00 (Update Now)

Torrent added: 2009-08-23 10:06:25





Torrent Files List


Ghost Whisperer 0313 - Home But Not Alone.avi (Size: 350.68 MB) (Files: 1)

 Ghost Whisperer 0313 - Home But Not Alone.avi

350.68 MB
 

Announce URL: http://inferno.demonoid.com:3406/announce

Torrent description


Melinda Gordon inherited her "gift" -- the ability to see and talk with the spirits of dead people -- from, and was coached it its use by her grandmother. Running an antique store in a small town, newly married to a paramedic, Melinda helps the ghosts wandering around who are trapped between worlds by helping them to resolve unfulfilled aspects of their former life.

Format : AVI
Format/Info : Audio Video Interleave
File size : 351 MiB
Duration : 42mn 51s
Overall bit rate : 1144 Kbps
Writing application : transcode-1.0.2

Video
Format : MPEG-4 Visual
Format profile : Streaming [email protected]
Format settings, BVOP : Yes
Format settings, QPel : No
Format settings, GMC : No warppoints
Format settings, Matrix : Default
Muxing mode : Packet Bitstream
Codec ID : XVID
Codec ID/Hint : XviD
Duration : 42mn 51s
Bit rate : 999 Kbps
Width : 624 pixels
Height : 352 pixels
Display aspect ratio : 16/9
Frame rate : 23.976 fps
Resolution : 8 bits
Colorimetry : 4:2:0
Scan type : Progressive
Bits/(Pixel*Frame) : 0.190
Stream size : 306 MiB (87%)
Writing library : XviD 1.2.0.dev47 (UTC 2006-11-01)

Audio
Format : MPEG Audio
Format version : Version 1
Format profile : Layer 3
Codec ID : 55
Codec ID/Hint : MP3
Duration : 42mn 51s
Bit rate mode : Variable
Bit rate : 128 Kbps
Channel(s) : 2 channels
Sampling rate : 48.0 KHz
Resolution : 16 bits
Stream size : 40.5 MiB (12%)
Alignment : Aligned on interleaves
Interleave, duration : 24 ms (0.58 video frame)

related torrents

Torrent name

health leech seeds Size

Ghost Whisperer S01 E13

5 5 335.94 MB 0

Ghost whisperer S03 E01

0 0 349.99 MB 0

Ghost Whisperer S03 E08

0 0 351.86 MB 0

Ghost Whisperer S03 E09

0 0 349.96 MB 0

Ghost Whisperer S03 E10

8 13 349.59 MB 0
 

comments (0)

Main Menu