Other

David Gilmour Life in Gdansk[DVDRip][H264andAAC][h33t][cybermonk]

  • Download 5x Faster
  • Download torrent
  • Direct Download
  • Rate this torrent +  |  -
David Gilmour Life in Gdansk[DVDRip][H264andAAC][h33t][cybermonk]

Free and Direct Download with Usenet 300GB+ free


Torrent info

Name:David Gilmour Life in Gdansk[DVDRip][H264andAAC][h33t][cybermonk]

Total Size: 822.57 MB

Magnet: Magnet Link

Seeds: 3

Leechers: 2

Stream: Watch Online @ Movie4u

Last Updated: 2010-11-27 16:45:48 (Update Now)

Torrent added: 2009-08-23 10:06:16




Torrent Files List


presentation.pdf (Size: 822.57 MB) (Files: 12)

 presentation.pdf

14.74 MB

 tracked_by_h33t_com.txt

0.02 KB

 DAVID GILMOUR LIFE IN GDANSK Disc4.nfo.txt

1.71 KB

 DVD4.jpg

7.92 MB

 Front Box.jpg

1.64 MB

 Bonus Track

  Live in Gdansk (weblink).jpg

798.82 KB

  Shine On You Crazy Diamond (Live, Venice, Vienne).mp3

18.06 MB

  12 Wots ...Uh The Deal.mp3

7.70 MB

  David Gilmour - Live in Gdansk (weblink).md5

0.23 KB

  David Gilmour - Live in Gdansk (weblink).nfo

0.99 KB

 DAVID GILMOUR LIFE IN GDANSK Disc4.mp4

770.65 MB

 Back Box.jpg

1.09 MB
 

Announce URL: http://www.h33t.com:3310/announce

Torrent description

***********************************************
General
***********************************************
Complete name : DAVID GILMOUR LIFE IN GDANSK.mp4
Format : MPEG-4
Format profile : Base Media
Codec ID : isom
File size : 771 MiB
Duration : 1h 16mn
Overall bit rate : 1399 Kbps
Movie name : DAVID_GILMOUR_GDANSK
***********************************************
Video
***********************************************
Format : AVC
Format/Info : Advanced Video Codec
Format profile : [email protected]
Format settings, CABAC : No
Format settings, ReFrames : 1 frame
Codec ID : avc1
Duration : 1h 16mn
Bit rate mode : Variable
Bit rate : 1235 Kbps
Width : 720 pixels
Height : 480 pixels
Display aspect ratio : 1.500
Frame rate mode : Constant
Frame rate : 25.000 fps
Standard : NTSC
Colorimetry : 4:2:0
Scan type : Progressive
Bits/(Pixel*Frame) : 0.143
Stream size : 680 MiB (88%)
***********************************************
Audio
***********************************************
Format : AAC
Format/Info : Advanced Audio Codec
Format version : Version 4
Format profile : LC
Format settings, SBR : No
Codec ID : 40
Duration : 1h 16mn
Bit rate mode : Variable
Bit rate : 160 Kbps
Channel(s) : 2 channels
Channel positions : L R
Sampling rate : 48.0 KHz
Resolution : 16 bits
Stream size : 88.1 MiB (11%)
***********************************************

related torrents

Torrent name

health leech seeds Size
 

comments (0)

Main Menu