Ghost Whisperer

Ghost Whisperer S03 E08

  • Download 5x Faster
  • Download torrent
  • Direct Download
  • Rate this torrent +  |  -
Ghost Whisperer S03 E08

Free and Direct Download with Usenet.nl 300GB+ free


Torrent info

Name:Ghost Whisperer S03 E08

Total Size: 351.86 MB

Magnet: Magnet Link

Seeds: 0

Leechers: 0

Stream: Watch Online @ Movie4u

Last Updated: 2015-09-09 12:59:44 (Update Now)

Torrent added: 2009-08-23 10:06:05





Torrent Files List


Ghost Whisperer 0308 - Bad Blood.avi (Size: 351.86 MB) (Files: 1)

 Ghost Whisperer 0308 - Bad Blood.avi

351.86 MB
 

tracker

leech seeds
 

Torrent description


Melinda Gordon inherited her "gift" -- the ability to see and talk with the spirits of dead people -- from, and was coached it its use by her grandmother. Running an antique store in a small town, newly married to a paramedic, Melinda helps the ghosts wandering around who are trapped between worlds by helping them to resolve unfulfilled aspects of their former life.
Format : AVI
Format/Info : Audio Video Interleave
File size : 352 MiB
Duration : 42mn 44s
Overall bit rate : 1151 Kbps
Writing application : MEncoder 1.0rc1-3.4.6
Writing library : MPlayer

Video
Format : MPEG-4 Visual
Format profile : Streaming [email protected]
Format settings, BVOP : Yes
Format settings, QPel : No
Format settings, GMC : No warppoints
Format settings, Matrix : Default
Muxing mode : Packet Bitstream
Codec ID : XVID
Codec ID/Hint : XviD
Duration : 42mn 44s
Bit rate : 1017 Kbps
Width : 624 pixels
Height : 352 pixels
Display aspect ratio : 16/9
Frame rate : 23.976 fps
Resolution : 8 bits
Colorimetry : 4:2:0
Scan type : Progressive
Bits/(Pixel*Frame) : 0.193
Stream size : 311 MiB (88%)
Writing library : XviD 1.2.0SMP (UTC 2006-01-08)

Audio
Format : MPEG Audio
Format version : Version 1
Format profile : Layer 3
Codec ID : 55
Codec ID/Hint : MP3
Duration : 42mn 44s
Bit rate mode : Variable
Bit rate : 121 Kbps
Minimum bit rate : 128 Kbps
Channel(s) : 2 channels
Sampling rate : 48.0 KHz
Resolution : 16 bits
Stream size : 37.0 MiB (11%)
Alignment : Aligned on interleaves
Interleave, duration : 24 ms (0.58 video frame)
Interleave, preload duration : 554 ms
Writing library : LAME3.97
Encoding settings : ABR

related torrents

Torrent name

health leech seeds Size

Ghost Whisperer S01 E08

0 0 349.98 MB 0

Ghost whisperer S03 E01

0 0 349.99 MB 0

Ghost Whisperer S03 E03

7 9 350.51 MB 0

Ghost Whisperer S03 E04

0 0 350.65 MB 0

Ghost Whisperer S03 E09

0 0 349.96 MB 0
 

comments (0)

Main Menu