Ghost Whisperer

Ghost Whisperer S03 E07

  • Download 5x Faster
  • Download torrent
  • Direct Download
  • Rate this torrent +  |  -
Ghost Whisperer S03 E07

Free and Direct Download with Usenet.nl 300GB+ free


Torrent info

Name:Ghost Whisperer S03 E07

Total Size: 350.01 MB

Magnet: Magnet Link

Seeds: 0

Leechers: 0

Stream: Watch Online @ Movie4u

Last Updated: 2010-11-30 21:32:02 (Update Now)

Torrent added: 2009-08-23 10:06:04





Torrent Files List


Ghost Whisperer 0307 - Unhappy Medium.avi (Size: 350.01 MB) (Files: 1)

 Ghost Whisperer 0307 - Unhappy Medium.avi

350.01 MB
 

Announce URL: http://inferno.demonoid.com:3406/announce

Torrent description


Melinda Gordon inherited her "gift" -- the ability to see and talk with the spirits of dead people -- from, and was coached it its use by her grandmother. Running an antique store in a small town, newly married to a paramedic, Melinda helps the ghosts wandering around who are trapped between worlds by helping them to resolve unfulfilled aspects of their former life.

Format : AVI
Format/Info : Audio Video Interleave
File size : 350 MiB
Duration : 43mn 2s
Overall bit rate : 1137 Kbps
Writing application : cant touch this

Video
Format : MPEG-4 Visual
Format profile : Streaming [email protected]
Format settings, BVOP : Yes
Format settings, QPel : No
Format settings, GMC : No warppoints
Format settings, Matrix : Default
Codec ID : XVID
Codec ID/Hint : XviD
Duration : 43mn 2s
Bit rate : 994 Kbps
Width : 624 pixels
Height : 352 pixels
Display aspect ratio : 16/9
Frame rate : 23.976 fps
Resolution : 8 bits
Colorimetry : 4:2:0
Scan type : Progressive
Bits/(Pixel*Frame) : 0.189
Stream size : 306 MiB (87%)
Writing library : XviD 1.2.0.dev42 (UTC 2005-12)

Audio
Format : MPEG Audio
Format version : Version 1
Format profile : Layer 3
Codec ID : 55
Codec ID/Hint : MP3
Duration : 43mn 2s
Bit rate mode : Variable
Bit rate : 130 Kbps
Minimum bit rate : 128 Kbps
Channel(s) : 2 channels
Sampling rate : 48.0 KHz
Resolution : 16 bits
Stream size : 40.0 MiB (11%)
Alignment : Aligned on interleaves
Interleave, duration : 24 ms (0.58 video frame)
Writing library : LAME3.96r
Encoding settings : ABR

related torrents

Torrent name

health leech seeds Size

Ghost Whisperer S01 E07

0 0 349.85 MB 0

Ghost whisperer S03 E01

0 0 349.99 MB 0

Ghost Whisperer S03 E08

0 0 351.86 MB 0

Ghost Whisperer S03 E09

0 0 349.96 MB 0

Ghost Whisperer S03 E10

8 13 349.59 MB 0
 

comments (0)

Main Menu