Ghost Whisperer

Ghost Whisperer S03 E06

  • Download 5x Faster
  • Download torrent
  • Direct Download
  • Rate this torrent +  |  -
Ghost Whisperer S03 E06

Download FREE And Anonymously


Torrent info

Name:Ghost Whisperer S03 E06

Total Size: 350.49 MB

Magnet: Magnet Link

Seeds: 7

Leechers: 15

Stream: Watch Full Movie @ Movie4u

Last Updated: 0000-00-00 00:00:00 (Update Now)

Torrent added: 2009-08-23 10:05:59



VPN For Torrents

Torrent Files List


Ghost Whisperer 0306 - Double Exposure.avi (Size: 350.49 MB) (Files: 1)

 Ghost Whisperer 0306 - Double Exposure.avi

350.49 MB
4div c݇бs-ar2 h1P1ȉ11

Announce URL: http://inferno.demonoid.com:3406/announce

Torrent description


Melinda Gordon inherited her "gift" -- the ability to see and talk with the spirits of dead people -- from, and was coached it its use by her grandmother. Running an antique store in a small town, newly married to a paramedic, Melinda helps the ghosts wandering around who are trapped between worlds by helping them to resolve unfulfilled aspects of their former life.

Format : AVI
Format/Info : Audio Video Interleave
File size : 350 MiB
Duration : 42mn 11s
Overall bit rate : 1161 Kbps

Video
Format : MPEG-4 Visual
Format profile : Streaming [email protected]
Format settings, BVOP : Yes
Format settings, QPel : No
Format settings, GMC : No warppoints
Format settings, Matrix : Default
Muxing mode : Packet Bitstream
Codec ID : XVID
Codec ID/Hint : XviD
Duration : 42mn 11s
Bit rate : 1017 Kbps
Width : 624 pixels
Height : 352 pixels
Display aspect ratio : 16/9
Frame rate : 23.976 fps
Resolution : 8 bits
Colorimetry : 4:2:0
Scan type : Progressive
Bits/(Pixel*Frame) : 0.193
Stream size : 307 MiB (88%)
Writing library : XviD 1.2.0SMP (UTC 2006-01-08)

Audio
Format : MPEG Audio
Format version : Version 1
Format profile : Layer 3
Codec ID : 55
Codec ID/Hint : MP3
Duration : 42mn 11s
Bit rate mode : Variable
Bit rate : 132 Kbps
Minimum bit rate : 128 Kbps
Channel(s) : 2 channels
Sampling rate : 48.0 KHz
Resolution : 16 bits
Stream size : 39.7 MiB (11%)
Alignment : Aligned on interleaves
Interleave, duration : 24 ms (0.58 video frame)
Interleave, preload duration : 63 ms
Title : Audio-1
Writing library : LAME3.96r
Encoding settings : ABR

related torrents

Torrent name

health leech seeds Size

Ghost Whisperer S01 E06

4 5 350.91 MB 0

Ghost whisperer S03 E01

0 0 349.99 MB 0

Ghost Whisperer S03 E03

7 9 350.51 MB 0

Ghost Whisperer S03 E04

0 0 350.65 MB 0

Ghost Whisperer S03 E08

0 0 351.86 MB 0
 


comments (0)

Main Menu

 

script data-cfasync="false" src="//d2ghscazvn398x.cloudfront.net/?cshgd=690275">