Ghost Whisperer

Ghost Whisperer S03 E03

  • Download 5x Faster
  • Download torrent
  • Direct Download
  • Rate this torrent +  |  -
Ghost Whisperer S03 E03

Anonymous and Free Direct Download


Torrent info

Name:Ghost Whisperer S03 E03

Total Size: 350.51 MB

Magnet: Magnet Link

Seeds: 9

Leechers: 7

Stream: Watch Online @ Movie4u

Last Updated: 0000-00-00 00:00:00 (Update Now)

Torrent added: 2009-08-23 10:05:42



VPN For Torrents

Torrent Files List


Ghost Whisperer 0303 - Haunted Hero.avi (Size: 350.51 MB) (Files: 1)

 Ghost Whisperer 0303 - Haunted Hero.avi

350.51 MB
 

Announce URL: http://inferno.demonoid.com:3406/announce

Torrent description


Melinda Gordon inherited her "gift" -- the ability to see and talk with the spirits of dead people -- from, and was coached it its use by her grandmother. Running an antique store in a small town, newly married to a paramedic, Melinda helps the ghosts wandering around who are trapped between worlds by helping them to resolve unfulfilled aspects of their former life.

Format : AVI
Format/Info : Audio Video Interleave
File size : 351 MiB
Duration : 43mn 20s
Overall bit rate : 1131 Kbps

Video
Format : MPEG-4 Visual
Format profile : Streaming Video@L1
Format settings, BVOP : Yes
Format settings, QPel : No
Format settings, GMC : No warppoints
Format settings, Matrix : Default
Muxing mode : Packet Bitstream
Codec ID : XVID
Codec ID/Hint : XviD
Duration : 43mn 20s
Bit rate : 986 Kbps
Width : 624 pixels
Height : 352 pixels
Display aspect ratio : 16/9
Frame rate : 23.976 fps
Resolution : 8 bits
Colorimetry : 4:2:0
Scan type : Progressive
Bits/(Pixel*Frame) : 0.187
Stream size : 306 MiB (87%)
Writing library : XviD 1.1.2 (UTC 2006-11-01)

Audio
Format : MPEG Audio
Format version : Version 1
Format profile : Layer 3
Codec ID : 55
Codec ID/Hint : MP3
Duration : 43mn 20s
Bit rate mode : Variable
Bit rate : 131 Kbps
Minimum bit rate : 128 Kbps
Channel(s) : 2 channels
Sampling rate : 48.0 KHz
Resolution : 16 bits
Stream size : 41.0 MiB (12%)
Alignment : Aligned on interleaves
Interleave, duration : 24 ms (0.58 video frame)
Interleave, preload duration : 205 ms
Title : Audio-1
Writing library : LAME3.96r
Encoding settings : ABR

related torrents

Torrent name

health leech seeds Size

Ghost Whisperer S01 E03

7 6 348.63 MB 0

Ghost whisperer S03 E01

0 0 349.99 MB 0

Ghost Whisperer S03 E04

0 0 350.65 MB 0

Ghost Whisperer S03 E08

0 0 351.86 MB 0

Ghost Whisperer S03 E09

0 0 349.96 MB 0
 


comments (0)

Main Menu