Ghost Whisperer

Ghost Whisperer S03 E02

  • Download 5x Faster
  • Download torrent
  • Direct Download
  • Rate this torrent +  |  -
Ghost Whisperer S03 E02

Free and Direct Download with Usenet 300GB+ free


Torrent info

Name:Ghost Whisperer S03 E02

Total Size: 349.86 MB

Magnet: Magnet Link

Seeds: 0

Leechers: 0

Stream: Watch Online @ Movie4u

Last Updated: 2015-08-07 13:20:14 (Update Now)

Torrent added: 2009-08-23 10:05:37




Torrent Files List


Ghost Whisperer 0302 - Don't Try This At Home.avi (Size: 349.86 MB) (Files: 1)

 Ghost Whisperer 0302 - Don't Try This At Home.avi

349.86 MB
 

tracker

leech seeds
 

Torrent description


Melinda Gordon inherited her "gift" -- the ability to see and talk with the spirits of dead people -- from, and was coached it its use by her grandmother. Running an antique store in a small town, newly married to a paramedic, Melinda helps the ghosts wandering around who are trapped between worlds by helping them to resolve unfulfilled aspects of their former life.

Format : AVI
Format/Info : Audio Video Interleave
File size : 350 MiB
Duration : 44mn 18s
Overall bit rate : 1104 Kbps
Writing application : VirtualDub

Video
Format : MPEG-4 Visual
Format profile : Streaming [email protected]
Format settings, BVOP : Yes
Format settings, QPel : No
Format settings, GMC : No warppoints
Format settings, Matrix : Default
Muxing mode : Packet Bitstream
Codec ID : XVID
Codec ID/Hint : XviD
Duration : 44mn 18s
Bit rate : 969 Kbps
Width : 624 pixels
Height : 352 pixels
Display aspect ratio : 16/9
Frame rate : 23.976 fps
Resolution : 8 bits
Colorimetry : 4:2:0
Scan type : Progressive
Bits/(Pixel*Frame) : 0.184
Stream size : 307 MiB (88%)
Writing library : XviD 1.1.2 (UTC 2006-11-01)

Audio
Format : MPEG Audio
Format version : Version 1
Format profile : Layer 3
Codec ID : 55
Codec ID/Hint : MP3
Duration : 44mn 18s
Bit rate mode : Variable
Bit rate : 122 Kbps
Minimum bit rate : 128 Kbps
Channel(s) : 2 channels
Sampling rate : 48.0 KHz
Resolution : 16 bits
Stream size : 38.7 MiB (11%)
Alignment : Aligned on interleaves
Interleave, duration : 24 ms (0.58 video frame)
Interleave, preload duration : 474 ms
Writing library : LAME3.98b
Encoding settings : ABR

related torrents

Torrent name

health leech seeds Size

Ghost Whisperer S01 E02

0 0 348.66 MB 0

Ghost whisperer S03 E01

0 0 349.99 MB 0

Ghost Whisperer S03 E08

0 0 351.86 MB 0

Ghost Whisperer S03 E09

0 0 349.96 MB 0

Ghost Whisperer S03 E10

8 13 349.59 MB 0
 

comments (0)

Main Menu