Ghost Whisperer

Ghost whisperer S03 E01

  • Download 5x Faster
  • Download torrent
  • Direct Download
  • Rate this torrent +  |  -
Ghost whisperer S03 E01

Free and Direct Download with Usenet 300GB+ free


Torrent info

Name:Ghost whisperer S03 E01

Total Size: 349.99 MB

Magnet: Magnet Link

Seeds: 0

Leechers: 0

Stream: Watch Online @ Movie4u

Last Updated: 2015-08-26 04:47:02 (Update Now)

Torrent added: 2009-08-23 10:05:31




Torrent Files List


Ghost Whisperer 0301 - The Underneath.avi (Size: 349.99 MB) (Files: 1)

 Ghost Whisperer 0301 - The Underneath.avi

349.99 MB
 

tracker

leech seeds
 

Torrent description


Melinda Gordon inherited her "gift" -- the ability to see and talk with the spirits of dead people -- from, and was coached it its use by her grandmother. Running an antique store in a small town, newly married to a paramedic, Melinda helps the ghosts wandering around who are trapped between worlds by helping them to resolve unfulfilled aspects of their former life.

Format : AVI
Format/Info : Audio Video Interleave
File size : 350 MiB
Duration : 43mn 57s
Overall bit rate : 1113 Kbps
Writing application : VirtualDubMod 1.5.10.2 (build 2542/release)
Writing library : VirtualDubMod build 2542/release

Video
Format : MPEG-4 Visual
Format profile : Streaming [email protected]
Format settings, BVOP : Yes
Format settings, QPel : No
Format settings, GMC : No warppoints
Format settings, Matrix : Default
Codec ID : XVID
Codec ID/Hint : XviD
Duration : 43mn 57s
Bit rate : 971 Kbps
Width : 624 pixels
Height : 352 pixels
Display aspect ratio : 16/9
Frame rate : 23.976 fps
Resolution : 8 bits
Colorimetry : 4:2:0
Scan type : Progressive
Bits/(Pixel*Frame) : 0.184
Stream size : 305 MiB (87%)
Writing library : XviD 1.1.2 (UTC 2006-11-01)

Audio
Format : MPEG Audio
Format version : Version 1
Format profile : Layer 3
Codec ID : 55
Codec ID/Hint : MP3
Duration : 43mn 57s
Bit rate mode : Variable
Bit rate : 129 Kbps
Minimum bit rate : 32.0 Kbps
Channel(s) : 2 channels
Sampling rate : 48.0 KHz
Resolution : 16 bits
Stream size : 40.6 MiB (12%)
Alignment : Aligned on interleaves
Interleave, duration : 24 ms (0.58 video frame)
Interleave, preload duration : 532 ms
Writing library : LAME3.97
Encoding settings : VBR (mtrh)

related torrents

Torrent name

health leech seeds Size

Ghost Whisperer S01 E01

8 15 348.71 MB 0

Ghost Whisperer S03 E03

7 9 350.51 MB 0

Ghost Whisperer S03 E04

0 0 350.65 MB 0

Ghost Whisperer S03 E08

0 0 351.86 MB 0

Ghost Whisperer S03 E09

0 0 349.96 MB 0
 

comments (0)

Main Menu