Ghost Whisperer

Ghost Whisperer S02E15 avi

  • Download 5x Faster
  • Download torrent
  • Direct Download
  • Rate this torrent +  |  -
Ghost Whisperer S02E15 avi

Free and Direct Download with Usenet.nl 300GB+ free


Torrent info

Name:Ghost Whisperer S02E15 avi

Total Size: 350.63 MB

Magnet: Magnet Link

Seeds: 0

Leechers: 0

Stream: Watch Online @ Movie4u

Last Updated: 2015-10-20 11:50:06 (Update Now)

Torrent added: 2009-08-23 10:03:26





Torrent Files List


Ghost.Whisperer.S02E15.avi (Size: 350.63 MB) (Files: 1)

 Ghost.Whisperer.S02E15.avi

350.63 MB
 

tracker

leech seeds
 

Torrent description


Melinda Gordon inherited her "gift" -- the ability to see and talk with the spirits of dead people -- from, and was coached it its use by her grandmother. Running an antique store in a small town, newly married to a paramedic, Melinda helps the ghosts wandering around who are trapped between worlds by helping them to resolve unfulfilled aspects of their former life.

Format : AVI
Format/Info : Audio Video Interleave
File size : 351 MiB
Duration : 42mn 24s
Overall bit rate : 1157 Kbps
Writing application : VirtualDubMod 1.5.10.1 (build 2439/release)
Writing library : VirtualDubMod build 2439/release

Video
Format : MPEG-4 Visual
Format profile : Streaming [email protected]
Format settings, BVOP : Yes
Format settings, QPel : No
Format settings, GMC : No warppoints
Format settings, Matrix : Default
Codec ID : XVID
Codec ID/Hint : XviD
Duration : 42mn 24s
Bit rate : 1014 Kbps
Width : 624 pixels
Height : 352 pixels
Display aspect ratio : 16/9
Frame rate : 23.976 fps
Resolution : 8 bits
Colorimetry : 4:2:0
Scan type : Progressive
Bits/(Pixel*Frame) : 0.193
Stream size : 308 MiB (88%)
Writing library : XviD 1.1.0 (UTC 2005-11-22)

Audio
Format : MPEG Audio
Format version : Version 1
Format profile : Layer 3
Codec ID : 55
Codec ID/Hint : MP3
Duration : 42mn 24s
Bit rate mode : Variable
Bit rate : 130 Kbps
Minimum bit rate : 32.0 Kbps
Channel(s) : 2 channels
Sampling rate : 48.0 KHz
Resolution : 16 bits
Stream size : 39.3 MiB (11%)
Alignment : Aligned on interleaves
Interleave, duration : 24 ms (0.58 video frame)
Interleave, preload duration : 586 ms
Writing library : LAME3.96r
Encoding settings : VBR (mtrh)

related torrents

Torrent name

health leech seeds Size
 

comments (0)

Main Menu