Ghost Whisperer

Ghost Whisperer S01 E16

  • Download 5x Faster
  • Download torrent
  • Direct Download
  • Rate this torrent +  |  -
Ghost Whisperer S01 E16

Free and Direct Download with Usenet.nl 300GB+ free


Torrent info

Name:Ghost Whisperer S01 E16

Total Size: 349.78 MB

Magnet: Magnet Link

Seeds: 8

Leechers: 5

Stream: Watch Online @ Movie4u

Last Updated: 0000-00-00 00:00:00 (Update Now)

Torrent added: 2009-08-23 09:59:35





Torrent Files List


Ghost Whisperer - 116 - Dead Man's Ridge.avi (Size: 349.78 MB) (Files: 1)

 Ghost Whisperer - 116 - Dead Man's Ridge.avi

349.78 MB
 

Announce URL: http://inferno.demonoid.com:3406/announce

Torrent description


Melinda Gordon inherited her "gift" -- the ability to see and talk with the spirits of dead people -- from, and was coached it its use by her grandmother. Running an antique store in a small town, newly married to a paramedic, Melinda helps the ghosts wandering around who are trapped between worlds by helping them to resolve unfulfilled aspects of their former life.


Format : AVI
Format/Info : Audio Video Interleave
File size : 349 MiB
Duration : 41mn 26s
Overall bit rate : 1176 Kbps
Writing application : transcode-0.6.14

Video
Format : MPEG-4 Visual
Format profile : Streaming [email protected]
Format settings, BVOP : Yes
Format settings, QPel : No
Format settings, GMC : No warppoints
Format settings, Matrix : Default
Codec ID : XVID
Codec ID/Hint : XviD
Duration : 41mn 26s
Bit rate : 1035 Kbps
Width : 624 pixels
Height : 352 pixels
Display aspect ratio : 16/9
Frame rate : 23.976 fps
Resolution : 8 bits
Colorimetry : 4:2:0
Scan type : Progressive
Bits/(Pixel*Frame) : 0.196
Stream size : 307 MiB (88%)
Writing library : XviD 1.0.3 (UTC 2004-12-20)

Audio
Format : MPEG Audio
Format version : Version 1
Format profile : Layer 3
Codec ID : 55
Codec ID/Hint : MP3
Duration : 41mn 26s
Bit rate mode : Variable
Bit rate : 96.0 Kbps
Channel(s) : 2 channels
Sampling rate : 48.0 KHz
Resolution : 16 bits
Stream size : 38.2 MiB (11%)
Alignment : Aligned on interleaves
Interleave, duration : 24 ms (0.58 video frame)

related torrents

Torrent name

health leech seeds Size

Ghost Whisperer S01 E01

8 15 348.71 MB 0

Ghost Whisperer S01 E04

0 0 348.64 MB 0

Ghost Whisperer S01 E18

0 0 349.42 MB 0

Ghost Whisperer S03 E16

0 0 348.35 MB 0
 

comments (0)

Main Menu