Animation

Dinosaur [2000] DVDRip N!CK

  • Download 5x Faster
  • Download torrent
  • Direct Download
  • Rate this torrent +  |  -
Dinosaur [2000] DVDRip N!CK

Anonymous and free Direct Download 300GB+


Torrent info

Name:Dinosaur [2000] DVDRip N!CK

Total Size: 706.71 MB

Magnet: Magnet Link

Seeds: 0

Leechers: 0

Stream: Watch Online @ Movie4u

Last Updated: 2012-02-13 20:14:39 (Update Now)

Torrent added: 2009-08-23 09:34:20



VPN For Torrents

Torrent Files List


Release Info.txt (Size: 706.71 MB) (Files: 4)

 Release Info.txt

0.98 KB

 Sample.avi

4.89 MB

 Dinosaur [2000] DVDRip - N!CK.srt

36.96 KB

 Dinosaur [2000] DVDRip - N!CK.avi

701.78 MB
 

Announce URL:

Torrent description

General
Complete name : C:\Dinosaur [2000] DVDRip - N!CK\Dinosaur [2000] DVDRip - N!CK.avi
Format : AVI
Format/Info : Audio Video Interleave
File size : 702 MiB
Duration : 1h 21mn
Overal bit rate : 1197 Kbps

Video
Format : MPEG-4 Visual
Format profile : Streaming [email protected]
Format settings, BVOP : Yes
Format settings, QPel : No
Format settings, GMC : No warppoints
Format settings, Matrix : Default
Codec ID : XVID
Codec ID/Hint : XviD
Duration : 1h 21mn
Bit rate : 1088 Kbps
Width : 640 pixels
Height : 288 pixels
Display aspect ratio : 2.222
Frame rate : 23.976 fps
Resolution : 8 bits
Colorimetry : 4:2:0
Scan type : Progressive
Bits/(Pixel*Frame) : 0.246
Stream size : 638 MiB
Writing library : XviD 50

Audio
Format : MPEG Audio
Format version : Version 1
Format profile : Layer 3
Codec ID : 55
Codec ID/Hint : MP3
Bit rate mode : Constant
Bit rate : 96.0 Kbps
Channel(s) : 2 channels
Sampling rate : 48.0 KHz
Resolution : 16 bits
Stream size : 56.3 MiB

related torrents

Torrent name

health leech seeds Size

Dinosaur (2000)

0 6 696.00 MB 0
 


comments (0)

Main Menu