Trance / House / Dance

Compilation Greatest Hits 70 80 vol 1 flac+cuetnt village scambioetico org by Ramasutra

  • Download 5x Faster
  • Download torrent
  • Direct Download
  • Rate this torrent +  |  -

Torrent info

Name:Compilation Greatest Hits 70 80 vol 1 flac+cuetnt village scambioetico org by Ramasutra

Total Size: 256.32 MB

Magnet: Magnet Link

Seeds: 7

Leechers: 1

Stream: Watch Online @ Movie4u

Last Updated: 2016-12-23 13:45:01 (Update Now)

Torrent added: 2008-07-23 09:40:57




Torrent Files List


artisti vari - Compilation 70-80 vol.1.cue (Size: 256.32 MB) (Files: 4)

 artisti vari - Compilation 70-80 vol.1.cue

1.89 KB

 artisti vari - Compilation 70-80 vol.1.flac

255.51 MB

 Compilation 70-80 vol.1

3.25 KB

 Image0001.JPG

820.66 KB
 

tracker

leech seeds
 

Torrent description

[color=purple] by Ramasutra [/color]

[color=green]:::->Cover<-:::[/color]

Compilation Greatest Hits 70 80 vol 1 flac+cuetnt village scambioetico org by Ramasutra preview 0

[color=green]:::->Dati Album<-:::[/color]


Autore:Artisti Vari
Titolo:Compilation Greatest Hits 70-80 vol.1
Anno: 2000
Genere: Dance
Etichetta:sconosciuta
fonte cd /originale /cdda
Cover : Incluse
------------------------------------------------------------------------------------------------------------------------
[color=green]:::->Tracklist<-:::[/color]

tracklist guardare retro copertina
-----------------------------------------------------------------------------------------------------------------------


Compilation sconosciuta ...ma molto bella .. l' autore, ha selezionato molto bene.

Musica anni 80 da ballare e' poi in Flac...questa e' il volume uno.



[color=green]:::->Dati Tecnici<-:::[/color]

[color=red] Formato : Flac [/color]
Programma usato [Eac]

[CODE]Exact Audio Copy V0.99 prebeta 3 from 28. July 2007

EAC extraction logfile from 21. July 2008, 14:39

artisti vari / Compilation 70-80 vol.1

Used drive : _NEC DVD_RW ND-3550A Adapter: 5 ID: 0

Read mode : Secure
Utilize accurate stream : Yes
Defeat audio cache : Yes
Make use of C2 pointers : No

Read offset correction : 48
Overread into Lead-In and Lead-Out : No
Fill up missing offset samples with silence : Yes
Delete leading and trailing silent blocks : No
Null samples used in CRC calculations : No
Used interface : Installed external ASPI interface

Used output format : User Defined Encoder
Selected bitrate : 768 kBit/s
Quality : High
Add ID3 tag : No
Command line compressor : C:\Programmi\Exact Audio Copy\FLAC\FLAC.EXE
Additional command line options : -6 -V -T "ARTIST=%a" -T "TITLE=%t" -T "ALBUM=%g" -T "DATE=%y" -T "TRACKNUMBER=%n" -T "GENRE=%m" -T "COMMENT=%e" %s -o %d


TOC of the extracted CD

Track | Start | Length | Start sector | End sector
---------------------------------------------------------
1 | 0:00.00 | 4:11.60 | 0 | 18884
2 | 4:11.60 | 1:10.42 | 18885 | 24176
3 | 5:22.27 | 2:22.72 | 24177 | 34898
4 | 7:45.24 | 3:35.74 | 34899 | 51097
5 | 11:21.23 | 3:06.11 | 51098 | 65058
6 | 14:27.34 | 3:50.63 | 65059 | 82371
7 | 18:18.22 | 2:45.34 | 82372 | 94780
8 | 21:03.56 | 2:49.03 | 94781 | 107458
9 | 23:52.59 | 3:09.37 | 107459 | 121670
10 | 27:02.21 | 1:40.69 | 121671 | 129239
11 | 28:43.15 | 2:27.52 | 129240 | 140316
12 | 31:10.67 | 1:43.65 | 140317 | 148106
13 | 32:54.57 | 2:18.21 | 148107 | 158477
14 | 35:13.03 | 2:39.14 | 158478 | 170416
15 | 37:52.17 | 2:32.53 | 170417 | 181869
16 | 40:24.70 | 1:56.69 | 181870 | 190638
17 | 42:21.64 | 4:26.28 | 190639 | 210616


Range status and errors

Selected range

Filename D:\Documents and Settings\salvo.SN116508160310\Documenti\artisti vari - Compilation 70-80 vol.1.wav

Peak level 99.9 %
Range quality 100.0 %
Test CRC 2B220766
Copy CRC 2B220766
Copy OK

No errors occurred


AccurateRip summary

Track 1 not present in database
Track 2 not present in database
Track 3 not present in database
Track 4 not present in database
Track 5 not present in database
Track 6 not present in database
Track 7 not present in database
Track 8 not present in database
Track 9 not present in database
Track 10 not present in database
Track 11 not present in database
Track 12 not present in database
Track 13 not present in database
Track 14 not present in database
Track 15 not present in database
Track 16 not present in database
Track 17 not present in database

None of the tracks are present in the AccurateRip database

End of status report
[/CODE]

related torrents

Torrent name

health leech seeds Size
 


comments (0)

Main Menu