Classic

Saint Saens Violin Sonatas [Charlier, Hubeau] (1990) [FLAC]

  • Download 5x Faster
  • Download torrent
  • Direct Download
  • Rate this torrent +  |  -
Saint Saens Violin Sonatas [Charlier, Hubeau] (1990) [FLAC]

Free and Direct Download with Usenet 300GB+ free


Torrent info

Name:Saint Saens Violin Sonatas [Charlier, Hubeau] (1990) [FLAC]

Total Size: 335.96 MB

Magnet: Magnet Link

Seeds: 0

Leechers: 0

Stream: Watch Online @ Movie4u

Last Updated: 2015-10-19 16:18:48 (Update Now)

Torrent added: 2009-08-23 08:12:44




Torrent Files List


Torrent downloaded from Demonoid.com.txt (Size: 335.96 MB) (Files: 12)

 Torrent downloaded from Demonoid.com.txt

0.05 KB

 Scans

  Tray.png

10.00 MB

  Booklet 004.png

12.80 MB

  Booklet 003.png

12.77 MB

  Booklet 002.png

11.36 MB

  Booklet 001.png

12.21 MB

 jiGGafellz' Step-by-Step Guide to Secure CD Ripping - Exact Audio Copy.url

0.18 KB

 Info.txt

2.00 KB

 EAC.log

1.99 KB

 CDImage.flac

276.82 MB

 CDImage (wav).cue

1.88 KB

 CDImage (flac).cue

1.88 KB
 

Announce URL:

Torrent description

Camille SAINT-SAENS (1835-1921)

SONATE POUR PIANO ET VIOLON Op. 75
re mineur
01. I. Allegro agitato
02. II. Adagio
03. III. Allegretto moderato
04. IV. Allegro molto

SONATE POUR PIANO ET VIOLON Op. 102
Mi bemol majeur
05. I. Poco allegro piu tosto moderato
06. II. Scherzo - Vivace
07. III. Andante
08. IV. Allegro grazioso, non presto
09. BERCEUSE Op. 38
10. ELEGIE Op. 160
11. ELEGIE Op. 143
12. ROMANCE Op. 37 (original pour flute et piano)

OLIVIER CHARLIER, violon
JEAN HUBEAU, piano

Erato - Total 64:47

Saint-Saëns wrote his passionate first Violin Sonata in 1885 whilst at the height of his compositional powers, which was around the time of the famous Carnival of the Animals and the celebrated ‘Organ’ Symphony. By the time of the first Violin Sonata he was now a most experienced composer for the violin having written his three Violin Concertos and the celebrated Introduction and Rondo Capriccioso for Violin and Orchestra. This is a fine performance from the admirable team of violinist Olivier Charlier and pianist Jean Hubeau who are most natural and never over-project their expression. I particularly enjoyed their interpretation of the first movement Allegro agitato which for the first time in this work allows me to hear impressionist suggestions.
Composed in 1896 the second Violin Sonata is more classical in approach yet is no less engaging especially in a performance as fine as this. The third movement Andante is especially well performed, long on expression and short on self-indulgence. Overall there is a strong sense of assurance and conviction from the well matched soloists which is both gratifying and admirable.
Composed over a span of fifty years the four Pieces for Violin and Piano; the Berceuse, the two Elegies and the Romance are wonderful scores that are more than mere miniatures and deserve to be better known in the chamber repertoire. The gifted soloists offer really delightful interpretations of these enchanting and often beautiful scores.
Michael Cookson - MusicWeb(UK)

Exact Audio Copy V0.99 prebeta 4 from 23. January 2008

EAC extraction logfile from 16. June 2008, 15:38

Olivier Charlier, Jean Hubeau / Camille Saint-Saens - Sonates pour Piano et Violon

Used drive : PIONEER DVD-RW DVR-109 Adapter: 1 ID: 0

Read mode : Secure
Utilize accurate stream : Yes
Defeat audio cache : Yes
Make use of C2 pointers : No

Read offset correction : 48
Overread into Lead-In and Lead-Out : No
Fill up missing offset samples with silence : Yes
Delete leading and trailing silent blocks : No
Null samples used in CRC calculations : Yes
Used interface : Installed external ASPI interface

Used output format : Internal WAV Routines
Sample format : 44.100 Hz; 16 Bit; Stereo


TOC of the extracted CD

Track | Start | Length | Start sector | End sector
---------------------------------------------------------
1 | 0:00.33 | 6:28.27 | 33 | 29159
2 | 6:28.60 | 5:51.38 | 29160 | 55522
3 | 12:20.23 | 3:44.55 | 55523 | 72377
4 | 16:05.03 | 6:00.60 | 72378 | 99437
5 | 22:05.63 | 7:16.60 | 99438 | 132197
6 | 29:22.48 | 3:51.47 | 132198 | 149569
7 | 33:14.20 | 6:08.73 | 149570 | 177242
8 | 39:23.18 | 5:15.47 | 177243 | 200914
9 | 44:38.65 | 5:10.20 | 200915 | 224184
10 | 49:49.10 | 4:41.23 | 224185 | 245282
11 | 54:30.33 | 4:55.52 | 245283 | 267459
12 | 59:26.10 | 5:22.38 | 267460 | 291647


Range status and errors

Selected range

Filename D:\Classical\Saint-Saens Violin Sonatas - Charlier, Hubeau (1990) [FLAC]\CDImage.wav

Peak level 100.0 %
Range quality 100.0 %
Test CRC A9C7672E
Copy CRC A9C7672E
Copy OK

No errors occurred

End of status report

related torrents

Torrent name

health leech seeds Size
 

comments (0)

Main Menu