Classic

Elgar Music for String Orchestra ASMF, Marriner (1968) [FLAC]

  • Download 5x Faster
  • Download torrent
  • Direct Download
  • Rate this torrent +  |  -
Elgar Music for String Orchestra ASMF, Marriner (1968) [FLAC]

Free and Direct Download with Usenet 300GB+ free


Torrent info

Name:Elgar Music for String Orchestra ASMF, Marriner (1968) [FLAC]

Total Size: 275.77 MB

Magnet: Magnet Link

Seeds: 0

Leechers: 0

Stream: Watch Online @ Movie4u

Last Updated: 2011-01-27 05:26:04 (Update Now)

Torrent added: 2009-08-23 08:07:30




Torrent Files List


Torrent downloaded from Demonoid.com.txt (Size: 275.77 MB) (Files: 25)

 Torrent downloaded from Demonoid.com.txt

0.05 KB

 Thumb.jpg

26.68 KB

 Read me.txt

0.26 KB

 Range.cue

1.75 KB

 Pregap.log

1.77 KB

 Playlist.m3u

1.06 KB

 Info.txt

0.54 KB

 Elgar - Music for String Orchestra (wav noncompliant).cue

1.94 KB

 Elgar - Music for String Orchestra (flac noncompliant).cue

1.94 KB

 EAC.log

4.62 KB

 Checksums.md5

1.34 KB

 08 - WARLOCK Serenade for Strings.flac

33.20 MB

 07 - The Spanish Lady - Suite.flac

29.03 MB

 06 - Elegy for strings op.58.flac

16.38 MB

 05 - Sospiri op.70.flac

20.11 MB

 04 - III. Allegretto.flac

10.83 MB

 03 - II. Larghetto.flac

24.35 MB

 02 - Serenade in E minor for strings op.20 - I. Allegro piacevole.flac

14.48 MB

 01 - ELGAR Introduction and Allegro op.47.flac

65.86 MB

 00 - Pregap.flac

8.18 KB

 Scans

  Tray.png

10.77 MB

  Booklet 004.png

11.99 MB

  Booklet 003.png

12.47 MB

  Booklet 002.png

13.40 MB

  Booklet 001.png

12.86 MB
 

Announce URL: http://inferno.demonoid.com:3396/announce

Torrent description

ELGAR
1. Introduction and Allegro for String Orchestra and Quartet, op. 47
Serenade in E minor for Strings, op. 20
2. I. Allegro piacevole
3. II. Larghetto
4. III. Allegretto
5. Sospiri for Strings, Harp and Organ, op. 70
6. Elegy for Strings, op. 58
7. The Spanish Lady — Suite: Burlesco — Sarabande — Bourree (ed. Percy Young)
WARLOCK
8. Serenade for Strings

String Quartet:
Hugh Maguire, Raymond Keenlyside, Kenneth Essex, Kenneth Heath.
Academy of St Martin-in-the-Fields,
Neville Marriner

Recorded 1968 (1-7), 1979 (8).
Decca

Exact Audio Copy V0.99 prebeta 4 from 23. January 2008

EAC extraction logfile from 27. July 2008, 10:31

Neville Marriner, Academy of St Martin-in-the-Fields / Elgar - Music for String Orchestra

Used drive : PIONEER DVD-RW DVR-109 Adapter: 1 ID: 0

Read mode : Secure
Utilize accurate stream : Yes
Defeat audio cache : Yes
Make use of C2 pointers : No

Read offset correction : 48
Overread into Lead-In and Lead-Out : No
Fill up missing offset samples with silence : Yes
Delete leading and trailing silent blocks : No
Null samples used in CRC calculations : Yes
Used interface : Installed external ASPI interface
Gap handling : Appended to previous track

Used output format : User Defined Encoder
Selected bitrate : 768 kBit/s
Quality : High
Add ID3 tag : No
Command line compressor : C:\Program Files\Exact Audio Copy\FLAC\FLAC.EXE
Additional command line options : -8 -V -T "ARTIST=%a" -T "TITLE=%t" -T "ALBUM=%g" -T "DATE=%y" -T "TRACKNUMBER=%n" -T "GENRE=%m" -T "COMMENT=EAC FLAC -8" %s


TOC of the extracted CD

Track | Start | Length | Start sector | End sector
---------------------------------------------------------
1 | 0:00.33 | 13:41.50 | 33 | 61657
2 | 13:42.08 | 3:20.62 | 61658 | 76719
3 | 17:02.70 | 6:06.13 | 76720 | 104182
4 | 23:09.08 | 2:38.50 | 104183 | 116082
5 | 25:47.58 | 4:53.50 | 116083 | 138107
6 | 30:41.33 | 4:27.00 | 138108 | 158132
7 | 35:08.33 | 6:02.25 | 158133 | 185307
8 | 41:10.58 | 7:48.50 | 185308 | 220457


Track 1

Filename D:\Classical\Elgar Music for String Orchestra - ASMF, Marriner (1968) [FLAC]\01 - ELGAR Introduction and Allegro op.47.wav

Pre-gap length 0:00:02.33

Peak level 81.4 %
Track quality 100.0 %
Test CRC 226F1200
Copy CRC 226F1200
Track not present in AccurateRip database
Copy OK

Track 2

Filename D:\Classical\Elgar Music for String Orchestra - ASMF, Marriner (1968) [FLAC]\02 - Serenade in E minor for strings op.20 - I. Allegro piacevole.wav

Pre-gap length 0:00:03.00

Peak level 60.8 %
Track quality 100.0 %
Test CRC 95938C2A
Copy CRC 95938C2A
Track not present in AccurateRip database
Copy OK

Track 3

Filename D:\Classical\Elgar Music for String Orchestra - ASMF, Marriner (1968) [FLAC]\03 - II. Larghetto.wav

Pre-gap length 0:00:02.00

Peak level 53.8 %
Track quality 100.0 %
Test CRC CFD28258
Copy CRC CFD28258
Track not present in AccurateRip database
Copy OK

Track 4

Filename D:\Classical\Elgar Music for String Orchestra - ASMF, Marriner (1968) [FLAC]\04 - III. Allegretto.wav

Pre-gap length 0:00:03.00

Peak level 53.5 %
Track quality 100.0 %
Test CRC F6C80284
Copy CRC F6C80284
Track not present in AccurateRip database
Copy OK

Track 5

Filename D:\Classical\Elgar Music for String Orchestra - ASMF, Marriner (1968) [FLAC]\05 - Sospiri op.70.wav

Pre-gap length 0:00:03.63

Peak level 56.7 %
Track quality 100.0 %
Test CRC BEE12656
Copy CRC BEE12656
Track not present in AccurateRip database
Copy OK

Track 6

Filename D:\Classical\Elgar Music for String Orchestra - ASMF, Marriner (1968) [FLAC]\06 - Elegy for strings op.58.wav

Pre-gap length 0:00:04.00

Peak level 57.5 %
Track quality 100.0 %
Test CRC BB6CAC30
Copy CRC BB6CAC30
Track not present in AccurateRip database
Copy OK

Track 7

Filename D:\Classical\Elgar Music for String Orchestra - ASMF, Marriner (1968) [FLAC]\07 - The Spanish Lady - Suite.wav

Pre-gap length 0:00:03.50

Peak level 75.3 %
Track quality 100.0 %
Test CRC 7C11D5E3
Copy CRC 7C11D5E3
Track not present in AccurateRip database
Copy OK

Track 8

Filename D:\Classical\Elgar Music for String Orchestra - ASMF, Marriner (1968) [FLAC]\08 - WARLOCK Serenade for Strings.wav

Pre-gap length 0:00:05.25

Peak level 67.4 %
Track quality 100.0 %
Test CRC E5E2FE2F
Copy CRC E5E2FE2F
Track not present in AccurateRip database
Copy OK


None of the tracks are present in the AccurateRip database

No errors occurred

End of status report

related torrents

Torrent name

health leech seeds Size
 

comments (0)

Main Menu