Classic

Ravel The Greatest Hits Vol1(1993 ) {MP3 320Kbs}[H33T][Naughty Knights]

  • Download 5x Faster
  • Download torrent
  • Direct Download
  • Rate this torrent +  |  -

Torrent info

Name:Ravel The Greatest Hits Vol1(1993 ) {MP3 320Kbs}[H33T][Naughty Knights]

Total Size: 160.97 MB

Magnet: Magnet Link

Seeds: 0

Leechers: 0

Stream: Watch Online @ Movie4u

Last Updated: 2017-01-27 23:02:29 (Update Now)

Torrent added: 2009-08-23 07:53:26




Torrent Files List


tracked_by_h33t_com.txt (Size: 160.97 MB) (Files: 9)

 tracked_by_h33t_com.txt

0.03 KB

 Track06.mp3

14.48 MB

 Track05.mp3

45.88 MB

 Track04.mp3

17.64 MB

 Track03.mp3

36.77 MB

 Track02.mp3

29.40 MB

 Track01.mp3

15.39 MB

 Ravel.jpg

1.39 MB

 Ravel 1 desc.txt

9.82 KB
 

tracker

leech seeds
 

Torrent description

*************************************
* IF.YOU.ENJOYED.THANK.ME.BY.SEEDING

I.DO.NOT.ALWAYS.READ.COMMENTS.

Request reseed at : www.h33tfr33sp33k.h33t.com/
---------------------------------------------

Playlist
1. Pavan for a Dead Princess -DENVER SYMPHONY ORCHESTRA
2. La Valse -SLAVONIC PHILHARMONIC
3. Daphnis and Chloe -SLAVONIC PHILHARMONIC
4. Alborada del Gracioso -DENVER SYMPHONY ORCHESTRA
5. Piano Concerto for Left Hand -KUN WOO PALK piano
6. Rapsodie Espagnole -DENVER SYMPHONY ORCHESTRA


-----------------------------------------
Tracker ......: http://www.h33t.com:3310/announce
-----------------------------------------
HASH...B8F2473ED229DE8194B7DD8EE151F51C2085EB75
-----------------------------------------
Extraction Method

Exact Audio Copy V0.99 prebeta 4 from 23. January 2008

EAC extraction logfile from 14. January 2009, 11:23

Unknown Artist / Unknown Title

Used drive : TSSTcorpCDDVDW TS-H653N Adapter: 2 ID: 1

Read mode : Secure
Utilize accurate stream : Yes
Defeat audio cache : No
Make use of C2 pointers : No

Combined read/write offset correction : 0
Overread into Lead-In and Lead-Out : No
Fill up missing offset samples with silence : Yes
Delete leading and trailing silent blocks : No
Null samples used in CRC calculations : No
Used interface : Native Win32 interface for Win NT & 2000
Gap handling : Not detected, thus appended to previous track

Used output format : LAME MP3 Encoder
Selected bitrate : 320 kBit/s
Quality : High
Add ID3 tag : Yes
Command line compressor : C:\Program Files\AutoGK\tools\lame\LAME.EXE


TOC of the extracted CD

Track | Start | Length | Start sector | End sector
---------------------------------------------------------
1 | 0:00.00 | 6:43.20 | 0 | 30244
2 | 6:43.20 | 12:50.42 | 30245 | 88036
3 | 19:33.62 | 16:03.63 | 88037 | 160324
4 | 35:37.50 | 7:42.25 | 160325 | 194999
5 | 43:20.00 | 20:02.47 | 195000 | 285196
6 | 63:22.47 | 6:19.28 | 285197 | 313649


Track 1

Filename C:\Users\Violet\Desktop\output\Track01.wav

Peak level 29.9 %
Track quality 100.0 %
Copy CRC 330538CF
Copy OK
------------------
Mediainfo log:
General
Complete name : C:\Users\Music\Desktop\Ravel The Greatest Hits Vol1 {MP3 320Kbs}[H33T][Naughty Knights]\Track01.mp3
Format : MPEG Audio
File size : 15.4 MiB
Duration : 6mn 43s
Overall bit rate : 320 Kbps
Album : Unknown Title
Track name : Track01
Track name/Position : 01
Track name/Total : 06
Performer : Unknown Artist
Writing library : LAME3.97
Encoding settings : LAME.EXE -h -b 320
Comment : Track 1
MCDI : Yes

Audio
Format : MPEG Audio
Format version : Version 1
Format profile : Layer 3
Duration : 6mn 43s
Bit rate mode : Constant
Bit rate : 320 Kbps
Channel(s) : 2 channels
Sampling rate : 44.1 KHz
Resolution : 16 bits
Writing library : LAME3.97
Encoding settings : CBR

General
Complete name : C:\Users\Music\Desktop\Ravel The Greatest Hits Vol1 {MP3 320Kbs}[H33T][Naughty Knights]\Track02.mp3
Format : MPEG Audio
File size : 29.4 MiB
Duration : 12mn 50s
Overall bit rate : 320 Kbps
Album : Unknown Title
Track name : Track02
Track name/Position : 02
Track name/Total : 06
Performer : Unknown Artist
Writing library : LAME3.97
Encoding settings : LAME.EXE -h -b 320
Comment : Track 2
MCDI : Yes

Audio
Format : MPEG Audio
Format version : Version 1
Format profile : Layer 3
Duration : 12mn 50s
Bit rate mode : Constant
Bit rate : 320 Kbps
Channel(s) : 2 channels
Sampling rate : 44.1 KHz
Resolution : 16 bits
Writing library : LAME3.97
Encoding settings : CBR

General
Complete name : C:\Users\Music\Desktop\Ravel The Greatest Hits Vol1 {MP3 320Kbs}[H33T][Naughty Knights]\Track03.mp3
Format : MPEG Audio
File size : 36.8 MiB
Duration : 16mn 3s
Overall bit rate : 320 Kbps
Album : Unknown Title
Track name : Track03
Track name/Position : 03
Track name/Total : 06
Performer : Unknown Artist
Writing library : LAME3.97
Encoding settings : LAME.EXE -h -b 320
Comment : Track 3
MCDI : Yes

Audio
Format : MPEG Audio
Format version : Version 1
Format profile : Layer 3
Duration : 16mn 3s
Bit rate mode : Constant
Bit rate : 320 Kbps
Channel(s) : 2 channels
Sampling rate : 44.1 KHz
Resolution : 16 bits
Writing library : LAME3.97
Encoding settings : CBR

General
Complete name : C:\Users\Music\Desktop\Ravel The Greatest Hits Vol1 {MP3 320Kbs}[H33T][Naughty Knights]\Track04.mp3
Format : MPEG Audio
File size : 17.6 MiB
Duration : 7mn 42s
Overall bit rate : 320 Kbps
Album : Unknown Title
Track name : Track04
Track name/Position : 04
Track name/Total : 06
Performer : Unknown Artist
Writing library : LAME3.97
Encoding settings : LAME.EXE -h -b 320
Comment : Track 4
MCDI : Yes

Audio
Format : MPEG Audio
Format version : Version 1
Format profile : Layer 3
Duration : 7mn 42s
Bit rate mode : Constant
Bit rate : 320 Kbps
Channel(s) : 2 channels
Sampling rate : 44.1 KHz
Resolution : 16 bits
Writing library : LAME3.97
Encoding settings : CBR

General
Complete name : C:\Users\Music\Desktop\Ravel The Greatest Hits Vol1 {MP3 320Kbs}[H33T][Naughty Knights]\Track05.mp3
Format : MPEG Audio
File size : 45.9 MiB
Duration : 20mn 2s
Overall bit rate : 320 Kbps
Album : Unknown Title
Track name : Track05
Track name/Position : 05
Track name/Total : 06
Performer : Unknown Artist
Writing library : LAME3.97
Encoding settings : LAME.EXE -h -b 320
Comment : Track 5
MCDI : Yes

Audio
Format : MPEG Audio
Format version : Version 1
Format profile : Layer 3
Duration : 20mn 2s
Bit rate mode : Constant
Bit rate : 320 Kbps
Channel(s) : 2 channels
Sampling rate : 44.1 KHz
Resolution : 16 bits
Writing library : LAME3.97
Encoding settings : CBR

General
Complete name : C:\Users\Music\Desktop\Ravel The Greatest Hits Vol1 {MP3 320Kbs}[H33T][Naughty Knights]\Track06.mp3
Format : MPEG Audio
File size : 14.5 MiB
Duration : 6mn 19s
Overall bit rate : 320 Kbps
Album : Unknown Title
Track name : Track06
Track name/Position : 06
Track name/Total : 06
Performer : Unknown Artist
Writing library : LAME3.97
Encoding settings : LAME.EXE -h -b 320
Comment : Track 6
MCDI : Yes

Audio
Format : MPEG Audio
Format version : Version 1
Format profile : Layer 3
Duration : 6mn 19s
Bit rate mode : Constant
Bit rate : 320 Kbps
Channel(s) : 2 channels
Sampling rate : 44.1 KHz
Resolution : 16 bits
Writing library : LAME3.97
Encoding settings : CBR



related torrents

Torrent name

health leech seeds Size
 


comments (0)

Main Menu