Classic

Organ + Violin, Guitar, Flute, Cor Anglais (1993 Christophorus)

  • Download 5x Faster
  • Download torrent
  • Direct Download
  • Rate this torrent +  |  -
Organ + Violin, Guitar, Flute, Cor Anglais (1993 Christophorus)

Free and Direct Download with Usenet.nl 300GB+ free


Torrent info

Name:Organ + Violin, Guitar, Flute, Cor Anglais (1993 Christophorus)

Total Size: 360.29 MB

Magnet: Magnet Link

Seeds: 1

Leechers: 1

Stream: Watch Online @ Movie4u

Last Updated: 2010-11-02 07:38:30 (Update Now)

Torrent added: 2009-08-23 07:43:39





Torrent Files List


back.jpg (Size: 360.29 MB) (Files: 15)

 back.jpg

43.90 KB

 cd.jpg

30.65 KB

 front.jpg

26.46 KB

 info.txt

0.93 KB

 Organ + Violin, Guitar, Flute, Cor Anglais.(1993.Christophorus).by.server.alliance.iso.wv

346.35 MB

 scans

  01.jpg

3.63 MB

  02.jpg

1.37 MB

  03.jpg

1.99 MB

  04.jpg

1.75 MB

  05.jpg

1.85 MB

  06.jpg

902.63 KB

  back.jpg

1.81 MB

  disc.jpg

568.99 KB

 Various - Christophorus - Organ +.log

2.33 KB

 Various - Christophorus - Organ +.wv.cue

2.34 KB
 

Announce URL: http://open.tracker.thepiratebay.org/announce

Torrent description

Organ + Violin, Guitar, Flute, Cor Anglais, 1993
Christophorus / CHE 0026-2
Classical, instrumental
eac-wv-tags-scans-embedded.iso.wv


Claus Kuehnl, Matthias Schneider, Kurt Raph, Wolfgang Baumgratz - Organ
Boris Goldstein - Violin
Richard Kronig - Guitar
Hans-Martin Linde - Flute
Helmut Schaarschmidt - Cor Anglais-Englischhorn

1. Tommasso Vitali / Chaconne fur Violine und Orgel. . . . . . . . . . . . . . . . . . . . . . . . . . . . . . . . . . .10:13
2. Luigi Boccherini / Introduktion und Fandango fur Gitarre und orgel. . . . . . . . . . . . . . . . . . . . . . . . . .06:26
3. Antonio Vivaldi / Konzert D-Dur fur Gitorre und Orgel 3.1 Allegro, 3.2 Largo, 3.3 Allegro . . . . . . . . . . . . . .08:34
4. John Stanley / Sonate d-moll fur Querflote + B.c. 4.1 Largo 4.2 Allegro 4.3 Siciliana, 4.4 Gavotta con variazioni . .09:27
5. Henry Purcell / Chaconne F-Dur fur Blockflote + B.c . . . . . . . . . . . . . . . . . . . . . . . . . . . . . . . . .03:56
6. Nicola Matteis / Suite in D fur Blockflote + B.c. 6.1 Preludio, 6.2 Balletto, 6.3 Aria. . . . . . . . . . . . . . . .04:32
7. Benedetto Marcello / Sonate d-moll fur Blockflote + B.c. 7.1 Adagio, 7.2 Allegro, 7.3 Largo, 7.4 Allegro. . . . . . .07:14
8. Pietro Locatelli / Sonate g-moll fur Querflote + B.c. 8.1 Largo, 8.2 Allegro, 8.3 Largo, 8.4 Allegro. . . . . . . . .09:39
9. C.P.E. Bach / Sonate a-moll 9.1 Adagio, 9.2 Allegro, 9.3 Vivace . . . . . . . . . . . . . . . . . . . . . . . . . . .09:14
10. J.S. Bach / Adagio B-Dur. . . . . . . . . . . . . . . . . . . . . . . . . . . . . . . . . . . . . . . . . . . . . . .02:26
11. Cesar Franck / Andantino C-Dur. . . . . . . . . . . . . . . . . . . . . . . . . . . . . . . . . . . . . . . . . . . .03:21



Exact Audio Copy V0.99 prebeta 4 from 23. January 2008

EAC extraction logfile from 16. May 2008, 10:20

Various / Christophorus: Organ +

Used drive : _NEC DVD_RW ND-3500AG Adapter: 2 ID: 0

Read mode : Secure
Utilize accurate stream : Yes
Defeat audio cache : Yes
Make use of C2 pointers : No

Read offset correction : 48
Overread into Lead-In and Lead-Out : No
Fill up missing offset samples with silence : Yes
Delete leading and trailing silent blocks : No
Null samples used in CRC calculations : Yes
Used interface : Native Win32 interface for Win NT & 2000

Used output format : Internal WAV Routines
Sample format : 44.100 Hz; 16 Bit; Stereo


TOC of the extracted CD

Track | Start | Length | Start sector | End sector
---------------------------------------------------------
1 | 0:00.00 | 10:13.25 | 0 | 45999
2 | 10:13.25 | 6:26.00 | 46000 | 74949
3 | 16:39.25 | 8:34.00 | 74950 | 113499
4 | 25:13.25 | 9:27.00 | 113500 | 156024
5 | 34:40.25 | 3:56.00 | 156025 | 173724
6 | 38:36.25 | 4:32.00 | 173725 | 194124
7 | 43:08.25 | 7:14.00 | 194125 | 226674
8 | 50:22.25 | 9:39.00 | 226675 | 270099
9 | 60:01.25 | 9:14.00 | 270100 | 311649
10 | 69:15.25 | 2:26.00 | 311650 | 322599
11 | 71:41.25 | 3:21.32 | 322600 | 337706


Range status and errors

Selected range

Filename D:\\\\Christophorus Organ +\\\\Various - Christophorus - Organ +.wav

Peak level 98.4 %
Range quality 100.0 %
Test CRC 638C0CEB
Copy CRC 638C0CEB
Copy OK

No errors occurred


AccurateRip summary

Track 1 not present in database
Track 2 not present in database
Track 3 not present in database
Track 4 not present in database
Track 5 not present in database
Track 6 not present in database
Track 7 not present in database
Track 8 not present in database
Track 9 not present in database
Track 10 not present in database
Track 11 not present in database

None of the tracks are present in the AccurateRip database

End of status report

related torrents

Torrent name

health leech seeds Size
 

comments (0)

Main Menu