Other

Yes We Can! The Lost Art Of Oratory

  • Download 5x Faster
  • Download torrent
  • Direct Download
  • Rate this torrent +  |  -
Yes We Can! The Lost Art Of Oratory

Free and Direct Download with Usenet.nl 300GB+ free


Torrent info

Name:Yes We Can! The Lost Art Of Oratory

Total Size: 543.30 MB

Magnet: Magnet Link

Seeds: 0

Leechers: 1

Stream: Watch Online @ Movie4u

Last Updated: 2010-11-13 19:50:39 (Update Now)

Torrent added: 2009-08-23 07:26:33





Torrent Files List


Yes We Can! The Lost Art Of Oratory.thebox.hannibal.avi (Size: 543.30 MB) (Files: 1)

 Yes We Can! The Lost Art Of Oratory.thebox.hannibal.avi

543.30 MB
 

Announce URL: http://tracker.thepiratebay.org:80/announce

Torrent description

The remarkable election of Barack Obama to the presidency of the United States has been propelled as much by his exceptional skill as an orator as by any other factor.

From the silver-tongued to the tongue-tied, the sublime to the ridiculous, this programme takes a fond look at the art and history of the political speech.

Alan Yentob joins the crowds at the inauguration in Washington, and traces the awesome power of orators from Cicero onwards, via Cromwell, Lincoln, Churchill, Hitler, Martin Luther King and many others.

Among the contributors are Bill Clinton, Jesse Jackson, Bob Geldof, Neil Kinnock, Ted Sorensen, Tony Benn, William Hague, Geoffrey Howe, Diane Abbott, Charlotte Higgins, Alastair Campbell and Germaine Greer.

What makes a good speech great? How much is content, how much is presentation? And has Obama brought eloquence back to 21st-century politics for good?

General
Complete name : Yes We Can! The Lost Art Of Oratory.thebox.hannibal.avi
Format : AVI
Format/Info : Audio Video Interleave
File size : 543 MiB
Duration : 1h 9mn
Overall bit rate : 1 095 Kbps
Writing application : VirtualDubMod 1.5.10.2 (build 2540/release)
Writing library : VirtualDubMod build 2540/release

Video
Format : MPEG-4 Visual
Format profile : Streaming [email protected]
Format settings, BVOP : Yes
Format settings, QPel : No
Format settings, GMC : No warppoints
Format settings, Matrix : Default (H.263)
Muxing mode : Packed bitstream
Codec ID : XVID
Codec ID/Hint : XviD
Duration : 1h 9mn
Bit rate : 957 Kbps
Width : 608 pixels
Height : 336 pixels
Display aspect ratio : 16/9
Frame rate : 25.000 fps
Resolution : 24 bits
Colorimetry : 4:2:0
Scan type : Progressive
Bits/(Pixel*Frame) : 0.187
Stream size : 475 MiB (87%)
Writing library : XviD 1.0.3 (UTC 2004-12-20)

Audio
Format : MPEG Audio
Format version : Version 1
Format profile : Layer 3
Codec ID : 55
Codec ID/Hint : MP3
Duration : 1h 9mn
Bit rate mode : Constant
Bit rate : 128 Kbps
Channel(s) : 2 channels
Sampling rate : 48.0 KHz
Resolution : 16 bits
Stream size : 63.5 MiB (12%)
Alignment : Aligned on interleaves
Interleave, duration : 40 ms (1.00 video frame)
Interleave, preload duration : 504 ms

related torrents

Torrent name

health leech seeds Size
 

comments (0)

Main Menu