Classic

Messiaen Concert A Quatre (1995) [FLAC] [Chung, Cantin, Holliger, Loriod, Rostropovich]

  • Download 5x Faster
  • Download torrent
  • Direct Download
  • Rate this torrent +  |  -

Torrent info

Name:Messiaen Concert A Quatre (1995) [FLAC] [Chung, Cantin, Holliger, Loriod, Rostropovich]

Total Size: 399.36 MB

Magnet: Magnet Link

Seeds: 0

Leechers: 0

Stream: Watch Online @ Movie4u

Last Updated: 2011-06-15 08:00:50 (Update Now)

Torrent added: 2009-08-23 07:23:34





Torrent Files List


Read me.txt (Size: 399.36 MB) (Files: 21)

 Read me.txt

0.49 KB

 Torrent downloaded from Demonoid.com.txt

0.05 KB

 Info.txt

2.83 KB

 Checksum.ffp

0.15 KB

 CDImage.flac

233.06 MB

 CDImage (wav).cue

1.43 KB

 CDImage (flac).cue

1.44 KB

 Scans

  Tray.png

10.26 MB

  Disc.png

10.49 MB

  Booklet 012.png

13.17 MB

  Booklet 011.png

12.94 MB

  Booklet 010.png

12.40 MB

  Booklet 009.png

12.04 MB

  Booklet 008.png

12.27 MB

  Booklet 007.png

12.10 MB

  Booklet 006.png

12.09 MB

  Booklet 005.png

11.88 MB

  Booklet 004.png

11.14 MB

  Booklet 003.png

10.79 MB

  Booklet 002.png

12.23 MB

  Booklet 001.png

12.49 MB
 

Announce URL: http://inferno.demonoid.com:3400/announce

Torrent description

L'Offrandes Oubliées, composed in the summer of 1930, was the first of Messiaen's orchestral works to be performed; the Concert à Quatre, begun 60 years later, was the last. Across this span, much changed.

OLIVIER MESSIAEN (1908 - 1992)

Concert á Quatre (1990-1991)
(pour Myung-Whun Chung, Catherine Cantin,
Heinz Holliger, Yvonne Loriod, Mstislav Rostropovich)
1. I. Entrée [6'32]
2. II. Vocalise [4'23]
3. III. Cadenza [4'53]
4. IV. Rondeau [10'23]

5. Les Offrandes Oubliées (1930) [12'38]
Meditation symphonique
Très lent, douloureux, profondement triste -
Vif, feroce, desespere, haletant -
Extrémement lent, avec une grande pitie et un grand amour

6. Un Sourire (1989) [10'37]

7. Le Tombeau Resplendissant (1931) [15'25]
Vif — Modéré — Presque lent — Vif — Lent

CATHERINE CANTIN, flute
HEINZ HOLLIGER, oboe
YVONNE LORIOD, piano
MSTISLAV ROSTROPOVICH, violoncelle

Orchestre de l'Opéra Bastille
MYUNG-WHUN CHUNG

Label: (P) 1995 Deutsche Grammophon GmbH, Hamburg

[img=Messiaen   Concert A Quatre (1995) [FLAC] [Chung, Cantin, Holliger, Loriod, Rostropovich] preview 0]

In the last two years of his life, French composer Olivier Messiaen devoted most of his energies to the creation of his final large-scale work for orchestra, Éclairs sur l'au delá. Somewhere along the line, Messiaen received a commission from oboist Heinz Holliger for a new work, and Messiaen began to comply with this request even as Éclairs sur l'au delá was still in progress. When death came to Messiaen on April 27, 1992, Éclairs sur l'au delá was as yet unperformed, but the score was complete. In the case of the Holliger commission, by now titled Concert à quatre, Messiaen had produced four movements, of which the first and third movements were complete, but the second and fourth remained only in sketch form.
The second movement, it turned out, was an arrangement of an already existing piece, the Vocalise-étude originally composed in 1939 for voice and piano. Messiaen's widow, pianist Yvonne Loriod, fleshed out the sketches for the fourth movement Rondeau adding some of Messiaen's characteristic birdcalls for good measure. Composer George Benjamin, a former student of Messiaen, completed the orchestration with some advice from Holliger. It is called Concert à quatre as there are actually four soloists involved in the concerto, namely oboe (played originally by Holliger), cello (premiered by Mstislav Rostropovich), flute (played by Catherine Cantin), and piano (Loriod). One of the most striking things about the Concert à quatre is the fact that it embraces tonality with such enthusiasm -- the "Vocalise" movement hearkens back to the world of the French Impressionists. While the Concert à quatre has its moments of explosiveness and violence, the overall feeling of the work is relaxed, as though Messiaen laid his pen aside after a day, and a life's work, done well, drifting off into a daydream from which, sadly, he was never to wake up.
~ All Music Guide

Exact Audio Copy V0.99 prebeta 4 from 23. January 2008

EAC extraction logfile from 25. November 2008, 9:21

Orchestre de l'Opera Bastille, Myung-Whun Chung / Olivier Messiaen - Concert A Quatre

Used drive : PLEXTOR CD-R PREMIUM2 Adapter: 1 ID: 1

Read mode : Secure
Utilize accurate stream : Yes
Defeat audio cache : Yes
Make use of C2 pointers : No

Read offset correction : 30
Overread into Lead-In and Lead-Out : NO
Fill up missing offset samples with silence : Yes
Delete leading and trailing silent blocks : No
Null samples used in CRC calculations : Yes
Used interface : Installed external ASPI interface

Used output format : Internal WAV Routines
Sample format : 44.100 Hz; 16 Bit; Stereo


TOC of the extracted CD

Track | Start | Length | Start sector | End sector
---------------------------------------------------------
1 | 0:00.33 | 6:32.00 | 33 | 29432
2 | 6:32.33 | 4:22.00 | 29433 | 49082
3 | 10:54.33 | 4:54.00 | 49083 | 71132
4 | 15:48.33 | 10:25.00 | 71133 | 118007
5 | 26:13.33 | 12:37.00 | 118008 | 174782
6 | 38:50.33 | 10:38.00 | 174783 | 222632
7 | 49:28.33 | 15:26.00 | 222633 | 292082


Range status and errors

Selected range

Filename D:\Shared\Messiaen - Concert A Quatre (1995) [FLAC] [Chung, Cantin, Holliger, Loriod, Rostropovich]\CDImage.wav

Peak level 99.9 %
Range quality 99.9 %
Test CRC EEC4097F
Copy CRC EEC4097F
Copy OK

No errors occurred


AccurateRip summary

Track 1 cannot be verified as accurate (confidence 2) [9E424F25], AccurateRip returned [845972CB]
Track 2 cannot be verified as accurate (confidence 2) [40E6B6DD], AccurateRip returned [0749E347]
Track 3 cannot be verified as accurate (confidence 2) [7CC11C7E], AccurateRip returned [D1D4C907]
Track 4 cannot be verified as accurate (confidence 2) [C9C4F2AE], AccurateRip returned [42EBC67D]
Track 5 cannot be verified as accurate (confidence 2) [98F365B0], AccurateRip returned [B3FEA02D]
Track 6 cannot be verified as accurate (confidence 2) [76A34D3D], AccurateRip returned [2A949C20]
Track 7 cannot be verified as accurate (confidence 2) [5F5FA5CA], AccurateRip returned [CB5FE050]

No tracks could be verified as accurate
You may have a different pressing from the one(s) in the database

End of status report

related torrents

Torrent name

health leech seeds Size
 

comments (0)

Main Menu