TV - Other

Emmerdale (22nd July 2008) PDTV (Xvid) xtremespeeds net

  • Download 5x Faster
  • Download torrent
  • Direct Download
  • Rate this torrent +  |  -
Emmerdale (22nd July 2008) PDTV (Xvid) xtremespeeds net

Anonymous and Free Direct Download 300GB+


Torrent info

Name:Emmerdale (22nd July 2008) PDTV (Xvid) xtremespeeds net

Total Size: 349.86 MB

Magnet: Magnet Link

Seeds: 3

Leechers: 1

Stream: Watch Online @ Movie4u

Last Updated: 2009-11-26 05:00:44 (Update Now)

Torrent added: 2008-07-23 04:12:31



VPN For Torrents

Torrent Files List


Emmerdale (22nd July 2008) [PDTV (Xvid)].avi (Size: 349.86 MB) (Files: 2)

 Emmerdale (22nd July 2008) [PDTV (Xvid)].avi

349.86 MB

 Emmerdale (22nd July 2008) [PDTV (Xvid)].nfo

2.50 KB
 

Announce URL: http://xtremespeeds.net/announce.php?passkey=tssespecialtorrentv1byxamsep2007

Torrent description

Emmerdale (22nd July 2008) [PDTV (Xvid)].avi

website:-
http://www.itv.com/Soaps/emmerdale/default.html

Emmerdale (Soap)
Time - 19:00 - 20:00 (1 hour long)
When - Tuesday 22nd July on ITV1 London
Bye Bye Baby.
Katie's plans are thwarted when she goes into labour unexpectedly. Gennie admits she is jinxed with animals. Val is forced to go cap in hand to Louise.
Director: Steve Arnold
Starring: Michael Jayston, Emma Davies, Ayden Callaghan, Tom Lister, Nick Miles, Matt Healy
(Stereo, Widescreen, Subtitles, Audio Described)


Video info:-

Complete name : Emmerdale (22nd July 2008) [PDTV (Xvid)].avi
Format : AVI
Format/Info : Audio Video Interleave
File size : 350 MiB
Duration : 46mn 37s
Overal bit rate : 1049 Kbps
Writing application : VirtualDubMod 1.5.4.1 (build 2178/release)
Writing library : VirtualDubMod build 2178/release

Video
Format : MPEG-4 Visual
Format settings, BVOP : No
Format settings, QPel : No
Format settings, GMC : 0 warppoint
Format settings, Matrix : Default
Codec ID : XVID
Codec ID/Hint : XviD
Duration : 46mn 37s
Bit rate : 914 Kbps
Width : 640 pixels
Height : 368 pixels
Display aspect ratio : 16/9
Frame rate : 25.000 fps
Resolution : 8 bits
Colorimetry : 4:2:0
Scan type : Progressive
Bits/(Pixel*Frame) : 0.155
Stream size : 305 MiB
Writing library : XviD 1.0.1
Writing library/Date : UTC 2004-06-05

Audio
Format : MPEG Audio
Format version : Version 1 / Layer 3
Codec ID : 55
Codec ID/Hint : MP3
Duration : 46mn 37s
Bit rate mode : CBR
Bit rate : 128 Kbps
Minimum bit rate : 128 Kbps
Channel(s) : 2 channels
Sampling rate : 48.0 KHz
Resolution : 16 bits
Stream size : 42.7 MiB
Writing library : LAME3.97
Encoding settings : CBR

related torrents

Torrent name

health leech seeds Size
 


comments (0)

Main Menu